<?xml version="1.0" standalone="no"?>
<!DOCTYPE svg PUBLIC "-//W3C//DTD SVG 1.1//EN" "http://www.w3.org/Graphics/SVG/1.1/DTD/svg11.dtd" >
<svg xmlns="http://www.w3.org/2000/svg" xmlns:xlink="http://www.w3.org/1999/xlink" version="1.1">
<metadata>
Created by FontForge 20161013 at Wed Jan 10 19:53:16 2007
 By ,,,
(c) 2007 Adobe Systems Incorporated. All Rights Reserved.
</metadata>
<defs>
<font id="ArnoPro-Bold" horiz-adv-x="546" >
  <font-face 
    font-family="Arno Pro"
    font-weight="700"
    font-stretch="normal"
    units-per-em="1000"
    panose-1="2 2 8 2 5 5 6 2 4 3"
    ascent="678"
    descent="-322"
    x-height="403"
    cap-height="606"
    bbox="-148 -379.5 1515 880"
    underline-thickness="50"
    underline-position="-150"
    unicode-range="U+0020-FB06"
  />
<missing-glyph horiz-adv-x="495" 
d="M0 0v693h495v-693h-495zM248 391l168 253h-337zM277 347l169 -253v505zM79 50h337l-168 252zM50 599v-505l168 253z" />
    <glyph glyph-name="f_f" unicode="ff" horiz-adv-x="565" 
d="M17 30q36 8 41 10q17 6 17 32q1 80 1 266q0 7 -6 7l-49 3q0 20 9 33q24 5 43 16q3 2 5 9q7 125 117 196q65 42 124 42q76 0 117 -39q27 25 67 42.5t71 16.5q61 0 84 -33q4 -9 2 -20q-4 -13 -22.5 -37t-26.5 -28q-2 -2 -8 -2t-8 2q-49 62 -81 62q-23 0 -33 -28t-10 -107
q0 -54 1 -65q0 -8 6 -8l96 3q-3 -10 -10 -59l-87 2q-5 0 -5 -7q1 -53 1.5 -142t1.5 -114q3 -36 28 -43q12 -3 49 -9q1 -5 -0.5 -20t-4.5 -15q-12 0 -63 2t-83 2q-29 0 -66 -2t-44 -2q-3 5 -3 18.5t3 16.5q34 7 36 8q17 6 17 33q1 80 1 267q0 6 -6 6l-131 1q-5 0 -5 -7
q0 -100 3 -259q0 -37 25 -42l32 -7q1 -4 -0.5 -17.5t-3.5 -17.5q-11 0 -47 2t-78 2q-32 0 -71.5 -2t-45.5 -2q-2 5 -2.5 17.5t2.5 16.5zM202 437l1 -29q0 -8 7 -8h131q4 3 4 8q4 62 26 111q-40 75 -104 75q-24 0 -39 -18q-26 -30 -26 -139z" />
    <glyph glyph-name="f_f_i" unicode="ffi" horiz-adv-x="812" 
d="M17 30q36 8 41 10q17 6 17 33q1 80 1 264q0 7 -6 7l-49 4q0 18 9 33q18 4 43 16q3 2 5 9q1 55 30 108t88 89q68 41 127 41q71 0 117 -42q27 25 70.5 43.5t88.5 18.5q51 0 85.5 -19.5t45.5 -46.5q6 -13 0 -30q-15 -35 -54 -55q-19 -6 -32 2q-9 9 -36 45q-39 54 -74 54
q-33 0 -47 -41t-14 -128l1 -38q0 -2 2.5 -4.5t4.5 -2.5l148 1q69 0 115 13q-2 -23 -2 -176q0 -112 1 -158q0 -34 21 -41q10 -4 35 -8q2 -4 1 -17.5t-5 -16.5q-11 0 -52 1.5t-69 1.5q-32 0 -68 -1.5t-41 -1.5q-2 4 -2.5 17.5t2.5 16.5q17 3 29 8q17 5 18 37q2 44 2 137
q0 81 -2 113q0 6 -4 12.5t-10 6.5h-119q-5 0 -5 -6q0 -184 2 -260q1 -37 27 -42q6 -1 14 -2.5t17 -3.5q2 -3 1.5 -16t-3.5 -19q-17 0 -56 2t-70 2q-15 0 -59.5 -2t-54.5 -2q-2 4 -2 18t2 17q25 5 36 9q17 6 17 31q0 40 0.5 133t0.5 135q0 6 -5 6l-133 1q-5 0 -5 -7
q0 -100 3 -259q0 -37 25 -42l31 -7q1 -4 -0.5 -17.5t-3.5 -17.5q-11 0 -46.5 2t-77.5 2q-32 0 -71.5 -2t-45.5 -2q-2 5 -2.5 17.5t2.5 16.5zM202 437v-29q2 -8 7 -8h134q4 3 4 8q3 61 26 112q-18 34 -46 54t-60 20q-22 0 -38 -18q-27 -29 -27 -139z" />
    <glyph glyph-name="f_f_l" unicode="ffl" horiz-adv-x="812" 
d="M16 30q38 8 41 9q17 6 17 33q1 80 1 266q0 6 -6 6l-49 4q0 20 9 33q18 4 43 16q3 2 5 9q8 128 120 198q63 40 125 40q73 0 117 -42q28 25 69 44t78 18q53 0 90 -19q9 -3 20 0q14 4 43 18q2 -1 6.5 -6.5t4.5 -8.5q-7 -22 -8 -84q-1 -22 -1 -61t-0.5 -93.5t-0.5 -90.5
q0 -214 2 -243q2 -18 5.5 -26t16.5 -12q1 0 37 -7q2 -4 0.5 -16.5t-4.5 -17.5q-7 0 -53 1.5t-75 1.5q-21 0 -58 -1.5t-48 -1.5q-2 4 -3 17t1 17q25 5 32 8q10 5 13 11.5t4 26.5q2 36 2 247q0 166 -1 206q-3 33 -15 49q-25 34 -63 34q-36 0 -49 -38t-13 -111q0 -42 1 -57
q0 -7 7 -7l89 3q-5 -18 -9 -60l-82 2q-5 0 -5 -7q0 -164 2 -258q1 -21 6 -29.5t20 -13.5q7 -2 18 -3.5t14 -2.5q1 -3 0 -17.5t-2 -17.5q-16 0 -55.5 2t-71.5 2q-16 0 -61.5 -2t-54.5 -2q-2 5 -2.5 18t2.5 17q34 7 40 10q17 6 17 33q1 80 1 265q0 6 -5 6h-132q-6 0 -6 -6
l3 -259q0 -37 25 -42l32 -7q1 -4 -0.5 -17.5t-3.5 -17.5q-11 0 -47 2t-78 2q-32 0 -71.5 -2t-45.5 -2q-2 5 -2.5 17.5t2.5 16.5zM201 437v-29q2 -8 7 -8h134q5 3 5 8q3 61 26 112q-48 74 -107 74q-22 0 -37 -17q-28 -30 -28 -140z" />
    <glyph glyph-name="longs_t" unicode="&#x17f;t" horiz-adv-x="591" 
d="M17 30q25 4 41 9q17 6 17 33q1 80 1 262q0 7 -6 7l-48 3q0 24 9 35q13 4 42 18q5 3 5 7q0 134 108 213q63 47 133 47q68 0 107.5 -39t41.5 -91q1 -27 1 -126q0 -8 4 -8l109 4q-8 -45 -9 -66q-18 0 -51.5 0.5t-50.5 0.5q-4 0 -4 -6q0 -18 -0.5 -74.5t-0.5 -80.5
q0 -55 4 -75q2 -16 17 -27.5t36 -11.5q32 0 56 14q2 -3 1.5 -15.5t-2.5 -18.5q-42 -55 -124 -55q-77 0 -103 49q-8 12 -11 29.5t-3.5 30t-0.5 50.5q0 26 0.5 93.5t0.5 87.5q0 9 -6 11l-53 4q11 43 12 46q33 5 41 9q6 3 8 13q4 32 4 101q0 57 -18 78q-25 26 -55 26
q-37 0 -53 -47.5t-15 -152.5q0 -236 4 -338q1 -20 6.5 -28.5t20.5 -11.5q7 -2 22.5 -4.5t19.5 -3.5q1 -4 -0.5 -17.5t-3.5 -16.5q-11 0 -53 1.5t-84 1.5q-32 0 -71.5 -2t-45.5 -2q-2 5 -2.5 17.5t2.5 16.5z" />
    <glyph glyph-name="R_A" unicode="RA" horiz-adv-x="1247" 
d="M29 572q-3 4 -2 18.5t5 15.5q10 0 64.5 -1.5t75.5 -1.5q40 0 101.5 1.5t88.5 1.5q92 0 141 -42t49 -111q0 -105 -117 -151q-3 -3 -1 -8q16 -31 70 -108.5t88 -113.5q12 -12 30 -21.5t34 -8.5q25 -1 40 34q85 201 174 459q15 44 20 70q30 -2 51 -2q23 0 51 2
q10 -38 17 -58q12 -32 44 -124t60.5 -171t43.5 -118q25 -64 41.5 -79t70.5 -24q2 -3 0.5 -17t-3.5 -17q-7 0 -54 1.5t-92 1.5q-48 0 -94 -1.5t-59 -1.5q-2 5 -2.5 17.5t1.5 16.5q42 9 50 14q13 8 9 19q-14 56 -46 137q-3 7 -10 7h-19h-30h-27q-66 0 -80 -1q-7 0 -11 -9
q-38 -109 -37 -124q0 -28 27 -33q13 -3 50 -10q5 -10 -3 -34q-7 0 -44.5 1.5t-88.5 1.5q-15 0 -75.5 -1.5t-80.5 -1.5q-76 -1 -123 57q-27 36 -120 189q-11 17 -29 18h-24q-4 0 -4 -6q0 -81 2 -167q1 -22 7 -32.5t21 -14.5t53 -10q4 -1 3 -17t-5 -17q-11 0 -60.5 1.5
t-88.5 1.5q-49 0 -97.5 -1.5t-51.5 -1.5q-3 3 -4 17t3 17q22 2 46 8q16 4 22 15t7 34q3 47 3 228q0 158 -2 202q-1 39 -28 45q-25 6 -51 9zM286 563q-18 0 -27 -4q-7 -5 -7 -15q-2 -22 -2 -228q0 -8 6 -8q82 -4 108 11q45 24 45 103q0 63 -33 102t-90 39zM890 459
q-11 -31 -33.5 -98.5l-28.5 -85.5q-2 -8 3 -8q11 -1 57 -1q57 0 66 1q3 0 3 5q-39 122 -63 187h-4z" />
    <glyph glyph-name="K_A" unicode="KA" horiz-adv-x="1252" 
d="M393 572q-2 5 -2 18t3 16q16 0 53.5 -1.5t66.5 -1.5q68 1 133 3q3 -3 3 -16.5t-4 -17.5q-34 -5 -49 -9.5t-35 -17t-41 -37.5l-134 -157q-2 -3 0 -5q32 -55 103 -138.5t119 -129.5q34 -30 59 -30q9 0 16 6.5t17 29.5q62 140 174 451q16 46 19 70q32 -2 52 -2q21 0 51 2
q10 -38 17 -58q120 -342 147 -413q25 -63 41.5 -78.5t71.5 -24.5q2 -3 0.5 -17t-4.5 -17q-6 0 -53 1.5t-93 1.5q-47 0 -93.5 -1.5t-59.5 -1.5q-2 5 -2 18t2 16q41 8 50 14q13 8 9 19q-14 56 -46 137q-4 7 -10 7h-76q-66 0 -80 -1q-8 0 -10 -9q-39 -112 -40 -124
q-4 -29 24 -35q35 -7 47 -8q5 -10 -3 -34q-5 0 -43 2t-66 1q-5 0 -68.5 -2t-85.5 -2q-47 0 -76.5 12t-62.5 50q-68 75 -161 207q-4 7 -16 17q0 18 4 18q35 19 74 57.5t95 113.5q38 51 38 72q0 13 -17 18q-17 7 -58 11zM27 30l52 10q18 5 23.5 17.5t6.5 44.5q2 95 1 216
v109.5t-1 87.5q-2 40 -23 46q-14 5 -54 11q-10 19 0 34q14 0 60 -1.5t89 -1.5q27 0 74.5 1.5t67.5 1.5q2 -4 2 -16.5t-2 -17.5q-31 -5 -44 -9q-25 -7 -26 -49q-1 -26 -1.5 -104t-0.5 -108q-2 -126 2 -215q1 -37 29 -45q6 -2 54 -11q2 -4 0 -18t-5 -16q-126 3 -151 3
q-47 0 -96.5 -1.5t-56.5 -1.5q-2 4 -2 16.5t2 16.5zM895 459q-11 -31 -33.5 -98.5l-28.5 -85.5q-2 -8 3 -8q11 -1 57 -1q57 0 66 1q3 0 3 5q-39 122 -63 187h-4z" />
    <glyph glyph-name="T_T" unicode="TT" horiz-adv-x="1090" 
d="M142 31q46 6 64 10q19 4 26.5 16.5t9.5 46.5q4 82 4 437q0 10 -7 10q-14 1 -45.5 1t-48.5 -1q-30 -1 -49 -35q-20 -36 -36 -86q-3 -2 -19.5 1.5t-18.5 8.5q16 81 21 170q0 2 3.5 4.5t5.5 1.5q38 -13 92 -13h801q77 0 114 12q5 0 5 -8q-16 -66 -24 -174q-3 -3 -19 -3.5
t-18 1.5q-8 58 -21 92q-11 26 -39 28q-19 1 -55 1.5t-46 -0.5q-7 -2 -7 -10q0 -406 3 -453q2 -37 25 -46q11 -4 66 -12q3 -3 2.5 -17t-4.5 -17q-17 0 -71 1.5t-91 1.5q-53 0 -110 -1.5t-66 -1.5q-4 4 -3.5 17.5t3.5 16.5q49 6 65 10q19 4 26.5 16.5t9.5 46.5q4 82 4 439
q0 10 -7 10l-292 -1q-7 -2 -7 -10q0 -411 2 -453q2 -37 25 -46q12 -4 67 -12q3 -3 2 -17t-4 -17q-16 0 -70 1.5t-92 1.5q-53 0 -110 -1.5t-66 -1.5q-4 4 -4 17.5t4 16.5z" />
    <glyph glyph-name="T_h" unicode="Th" horiz-adv-x="1050" 
d="M162 31q22 3 55 10q19 4 26.5 16.5t9.5 47.5q4 82 4 436q0 2 -2.5 6t-4.5 4q-14 1 -51 1t-54 -1q-33 -2 -51 -37q-19 -42 -33 -82q-4 -4 -20 0t-18 10q13 65 20 174q9 0 14 -2q37 -11 87 -11h436q8 0 8 8l-1 34q0 2 3 6t5 4q20 1 41.5 3.5t35 5.5l27 6t14.5 3q6 -1 6 -8
q0 -2 -0.5 -19.5t-0.5 -49.5v-70q0 -16 -0.5 -84t-0.5 -77q0 -2 1.5 -3t3.5 0q74 52 127 52q63 0 97 -42.5t34 -122.5q0 -166 1 -185q0 -10 6 -15q15 -12 51 -18q2 -3 0.5 -17.5t-4.5 -16.5q-2 0 -41.5 1.5t-79.5 1.5q-67 0 -108 -3q-1 5 -1 18t1 16q18 3 26 7q11 4 14 12
t4 30q5 163 -4 201q-5 26 -25.5 41.5t-48.5 15.5q-27 0 -46 -10q-6 -2 -6 -11q0 -215 1 -230q1 -35 9 -42q4 -4 10 -6q20 -6 30 -8q2 -3 2 -16t-2 -18q-12 0 -51.5 1.5t-67.5 1.5q-25 0 -62.5 -1.5t-51.5 -1.5q-2 5 -2 18.5t2 15.5q18 3 33 9q12 3 15 14.5t4 40.5
q2 39 2 167q0 259 -1 273q-1 6 -5.5 11t-10.5 5q-19 1 -88.5 1.5t-78.5 -0.5q-7 -4 -7 -10q0 -411 2 -452q2 -37 25 -47q12 -4 60 -12q3 -3 2 -16.5t-4 -17.5q-29 0 -77 1.5t-78 1.5q-29 0 -84 -1.5t-83 -1.5q-4 4 -4 17.5t4 16.5z" />
    <glyph glyph-name="f_b" unicode="fb" horiz-adv-x="796" 
d="M18 31q34 7 40 10q17 6 17 34q1 80 1 258q0 7 -6 7l-48 3q0 23 10 36q25 8 40 17q5 4 5 7q4 146 123 222q26 17 59.5 28t57.5 11q47 0 88 -19q9 -4 21 0q14 4 43 18q2 -1 6.5 -6.5t4.5 -8.5q-7 -22 -8 -88v-183q1 -4 5 -2q84 39 125 39q67 0 110 -48q47 -50 47 -133
q0 -114 -88 -182q-28 -22 -87 -42.5t-95 -20.5q-92 0 -155 29q7 34 7 71q0 30 0.5 88.5t0.5 87.5q0 232 -1 263q0 33 -14 52q-26 34 -63 34q-24 0 -37 -16q-25 -29 -25 -132q0 -43 1 -58q0 -7 6 -7l88 3q-4 -16 -9 -63q-15 0 -40.5 0.5t-39.5 0.5q-5 0 -5 -6l3 -255
q0 -22 5.5 -30.5t20.5 -12.5q7 -2 18.5 -3.5t15.5 -2.5q1 -4 0 -18t-3 -17q-16 0 -57 2t-72 2q-16 0 -61 -2t-55 -2q-3 4 -3 17.5t3 17.5zM513 345q-25 0 -35 -5q-6 -2 -6 -14q-3 -161 2 -218q4 -37 16 -46q23 -22 60 -22q29 0 50 26q28 38 28 112q0 80 -32 122
q-31 45 -83 45z" />
    <glyph glyph-name="f_f_b" unicode="ffb" horiz-adv-x="1066" 
d="M17 30q36 8 40 9q18 6 18 33q1 80 1 266q0 6 -6 6l-49 4q0 20 9 33q18 4 43 16q3 2 5 9q8 128 120 198q63 40 124 40q74 0 118 -42q28 26 69.5 44.5t78.5 17.5q48 0 89 -19q9 -3 20 0q16 5 43 18q2 -1 6 -6.5t4 -8.5q-7 -30 -7 -84q-1 -25 -1 -189q2 -5 5 -3
q88 42 124 42q67 0 112 -49q46 -50 46 -132q0 -119 -82 -181q-29 -23 -83 -43.5t-87 -20.5q-48 0 -97 13q-24 6 -63 -5q-2 -1 -6 2.5t-4 5.5q6 50 6 286q0 201 -1 241q-3 36 -15 49q-27 34 -63 34t-49 -39t-13 -111l1 -57q0 -7 7 -7l89 3q-5 -18 -9 -60l-82 2q-6 0 -6 -7
l3 -258q1 -21 6 -29.5t20 -13.5q7 -2 18 -3.5t14 -2.5q1 -4 0 -18t-3 -17q-15 0 -54.5 2t-71.5 2q-16 0 -61 -2t-55 -2q-2 5 -2.5 18t2.5 17q34 7 40 10q17 6 17 33q1 80 1 265q0 6 -5 6h-132q-6 0 -6 -6l3 -259q0 -37 25 -42l32 -7q1 -4 -0.5 -17.5t-3.5 -17.5q-11 0 -47 2
t-78 2q-32 0 -71.5 -2t-45.5 -2q-2 5 -2.5 17.5t2.5 16.5zM785 344q-23 0 -37 -7q-6 -2 -6 -13q-1 -36 -0.5 -108t2.5 -110q2 -30 17 -42q28 -26 61 -26q28 0 48 27q28 36 28 113q0 82 -32 124q-29 42 -81 42zM202 437v-29q2 -8 7 -8h134q4 3 4 8q3 58 27 112
q-48 74 -107 74q-23 0 -37 -17q-28 -30 -28 -140z" />
    <glyph glyph-name="f_f_h" unicode="ffh" horiz-adv-x="1074" 
d="M17 30q36 8 40 9q18 6 18 33q1 80 1 266q0 6 -6 6l-49 4q0 20 9 33q18 4 43 16q3 2 5 9q8 128 119 198q62 40 125 40q74 0 118 -42q29 27 70.5 45t79.5 17q50 0 87 -19q9 -3 20 0q16 5 43 18q2 -1 6 -6.5t4 -8.5q-7 -30 -7 -84q-1 -25 -1 -199q0 -7 4 -3q76 52 128 52
q62 0 96 -42.5t34 -122.5q0 -166 1 -185q0 -11 7 -15q15 -12 50 -18q3 -3 2 -17t-5 -17q-1 0 -41.5 1.5t-80.5 1.5q-68 0 -107 -3q-4 4 -4 17.5t4 16.5q16 3 26 7q17 6 18 42q5 164 -4 202q-5 26 -26 41.5t-49 15.5q-26 0 -46 -10q-6 -2 -6 -12q0 -215 1 -230q0 -2 0.5 -8
t0.5 -8t0.5 -6.5t1 -6.5t1.5 -5t2.5 -4.5l3.5 -3.5t4.5 -3.5t5.5 -2.5q14 -5 31 -8q4 -4 3 -16.5t-4 -17.5q-11 0 -48 1.5t-72 1.5q-36 0 -71.5 -1.5t-41.5 -1.5q-4 5 -4 18t4 16q15 3 33 9q18 5 19 55q2 48 1 229q0 127 -2 207q-3 36 -15 49q-27 34 -62 34
q-36 0 -49.5 -38.5t-13.5 -111.5l1 -57q0 -7 7 -7l89 3q-5 -18 -9 -60l-82 2q-6 0 -6 -7l3 -258q1 -21 6 -29.5t20 -13.5q7 -2 18 -3.5t14 -2.5q1 -4 0 -18t-3 -17q-15 0 -54.5 2t-71.5 2q-16 0 -61 -2t-55 -2q-2 5 -2.5 18t2.5 17q34 7 40 10q17 6 17 33q1 80 1 265
q0 6 -5 6h-132q-6 0 -6 -6l3 -259q0 -37 25 -42l32 -7q1 -4 -0.5 -17.5t-3.5 -17.5q-11 0 -47 2t-78 2q-32 0 -71.5 -2t-45.5 -2q-2 4 -2 17.5t2 16.5zM202 437v-30q2 -7 6 -7h135q4 3 4 8q3 58 27 112q-17 33 -45 53.5t-61 20.5q-23 0 -38 -17q-28 -30 -28 -140z" />
    <glyph glyph-name="f_f_j" unicode="ffj" horiz-adv-x="811" 
d="M16 30q36 8 41 10q17 6 17 33q1 80 1 264q0 7 -6 7l-49 4q0 18 9 33q18 4 43 16q3 2 5 9q2 121 116 195q66 43 129 43q79 0 117 -42q28 26 71 44t88 18q51 0 85.5 -19.5t45.5 -46.5q6 -13 0 -30q-15 -35 -54 -55q-19 -6 -32 2q-9 9 -36 45q-20 27 -36.5 40.5t-37.5 13.5
q-33 0 -46.5 -41t-13.5 -128v-38q0 -2 2.5 -4.5t4.5 -2.5l145 1q56 0 119 10v-152t-1 -155q0 -86 -10 -133q-20 -83 -70.5 -141t-90.5 -75q-21 1 -37 17q-2 10 1 13q45 22 60 61t15 128v31q0 240 -4 321q-3 19 -14 19h-114q-6 0 -6 -6q0 -184 2 -260q1 -34 27 -42
q5 -1 16.5 -2.5t20.5 -3.5q1 -4 0 -18t-3 -17q-7 0 -48.5 2t-82.5 2q-24 0 -65 -2t-49 -2q-2 4 -2 18t2 17q23 5 36 9q17 6 17 31q1 40 1 268q0 6 -5 6l-133 1q-5 0 -5 -7q0 -100 3 -259q0 -36 25 -42q1 0 31 -7q1 -4 -0.5 -17.5t-3.5 -17.5q-11 0 -46.5 2t-77.5 2
q-32 0 -71.5 -2t-45.5 -2q-2 5 -2.5 17.5t2.5 16.5zM201 437v-29q2 -8 7 -8h134q5 3 5 8q3 61 26 112q-46 74 -106 74q-22 0 -39 -17q-27 -29 -27 -140z" />
    <glyph glyph-name="f_f_k" unicode="ffk" horiz-adv-x="1043" 
d="M17 30q36 8 40 9q18 6 18 33q1 80 1 266q0 6 -6 6l-49 4q0 20 9 33q18 4 43 16q3 2 5 9q8 128 120 198q63 40 124 40q74 0 118 -42q28 25 69.5 44t78.5 18q48 0 89 -19q9 -3 20 0q16 5 43 18q2 -1 6 -6.5t4 -8.5q-7 -30 -7 -84q-1 -26 -1.5 -162t-1.5 -185q20 3 44 22
q28 23 55 56t27 45q0 13 -17 18q-6 1 -17 3t-19.5 3.5t-9.5 1.5q-2 5 -0.5 18.5t4.5 15.5q112 -2 201 7q3 -2 3.5 -16t-3.5 -19q-52 -10 -77 -35q-50 -48 -82 -86v-5q14 -26 69 -98t82 -96q20 -17 63 -21q3 -3 1 -17t-5 -17q-29 -5 -132 -5q-39 1 -59 23q-23 24 -101 141
q-17 28 -27 32q1 -53 1 -106q1 -24 6.5 -32t20.5 -12q20 -5 32 -7q2 -4 0 -17.5t-6 -16.5q-8 0 -46 1.5t-74 1.5q-31 0 -66.5 -1.5t-47.5 -1.5q-3 4 -3 17.5t3 16.5q22 4 32 7q17 8 18 40q3 39 3 195q0 217 -1 258q-3 35 -15 48q-27 34 -62 34q-36 0 -49.5 -38.5
t-13.5 -110.5q0 -42 1 -57q0 -7 7 -7l89 3q-5 -18 -9 -60l-82 2q-6 0 -6 -7l3 -258q1 -21 6 -29.5t20 -13.5q7 -2 18 -3.5t14 -2.5q1 -4 0 -18t-3 -17q-15 0 -54.5 2t-71.5 2q-16 0 -61 -2t-55 -2q-2 5 -2.5 18t2.5 17q34 7 40 10q17 6 17 33q1 80 1 265q0 6 -5 6h-132
q-6 0 -6 -6l3 -259q0 -37 25 -42l32 -7q1 -4 -0.5 -17.5t-3.5 -17.5q-11 0 -47 2t-78 2q-32 0 -71.5 -2t-45.5 -2q-2 5 -2.5 17.5t2.5 16.5zM202 437v-29q2 -8 7 -8h134q4 3 4 8q5 61 27 112q-42 74 -106 74q-24 0 -38 -17q-28 -30 -28 -140z" />
    <glyph glyph-name="f_f_t" unicode="fft" horiz-adv-x="868" 
d="M16 30q36 8 41 10q17 6 17 33q1 80 1 264q0 7 -6 7l-49 4q0 20 9 33q21 4 43 16q4 3 4 7q4 134 111 203q53 35 105 35q56 0 76 -27q4 -10 2 -19q-2 -13 -18 -36t-28 -31q-8 -4 -18 2q-45 60 -70 60q-13 0 -20 -12q-16 -20 -16 -113q0 -30 2 -58q0 -8 7 -8h138q5 2 5 8
q7 147 118 219q56 37 104 37q57 0 80 -31v-19q-15 -34 -46 -65q-8 -2 -15 0q-52 59 -80 59q-15 0 -21 -11q-10 -11 -13.5 -36.5t-3.5 -88.5q0 -20 3 -65q0 -7 7 -7l125 1q6 0 6 7v82q24 7 61.5 24.5t49.5 27.5q15 5 24 3q-4 -31 -4 -137q0 -8 4 -8l109 4q-8 -47 -9 -61
q-18 0 -51.5 0.5t-50.5 0.5q-4 0 -4 -6q0 -18 -0.5 -77t-0.5 -84q0 -54 4 -74q2 -16 17 -27.5t36 -11.5q32 0 56 14q2 -3 1.5 -15.5t-2.5 -18.5q-42 -55 -124 -55q-78 0 -102 49q-8 12 -11 29.5t-3.5 30t-0.5 50.5q0 22 0.5 92t0.5 94q0 9 -6 11h-126q-6 0 -6 -6
q0 -184 3 -256q3 -36 29 -43q15 -4 49 -9q1 -5 -1 -20t-5 -15q-11 0 -62.5 2t-83.5 2q-29 0 -67 -2t-45 -2q-3 5 -3 18.5t3 16.5q5 1 13.5 2.5t14.5 3l10 2.5q17 6 17 33q1 80 1 267q0 6 -6 6h-138q-5 0 -5 -6q0 -100 3 -259q0 -37 25 -42l32 -7q1 -4 -0.5 -17.5t-3.5 -17.5
q-11 0 -47 2t-78 2q-32 0 -71.5 -2t-45.5 -2q-2 5 -2.5 17.5t2.5 16.5z" />
    <glyph glyph-name="f_h" unicode="fh" horiz-adv-x="803" 
d="M18 31q34 7 40 10q17 6 17 34q1 80 1 258q0 7 -6 7l-48 3q0 23 10 35q24 7 40 18q5 2 5 7q2 75 31.5 128t92.5 95q59 38 112 38q51 0 92 -19q8 -4 21 0q8 2 42 18q2 -1 6.5 -6.5t4.5 -8.5q-7 -23 -8 -98v-185q0 -7 4 -3q74 52 127 52q63 0 97 -42.5t34 -122.5
q0 -166 1 -185q0 -10 6 -15q15 -12 51 -18q2 -3 0.5 -17.5t-4.5 -16.5q-2 0 -41.5 1.5t-79.5 1.5q-68 0 -108 -3q-2 5 -2 18t2 16q18 3 26 7q11 4 14.5 12t4.5 30q5 160 -5 202q-5 26 -25.5 42t-48.5 16t-46 -11q-6 -2 -6 -11q0 -216 1 -231q0 -3 0.5 -10.5t1 -10t1 -7.5
t1.5 -7t3 -5t5 -5t7 -3q20 -6 30 -8q2 -3 2 -16t-2 -18q-12 0 -51.5 1.5t-67.5 1.5q-25 0 -61.5 -1.5t-50.5 -1.5q-1 5 -1 18.5t1 15.5q15 3 34 9q11 3 13.5 14t3.5 41q1 39 1 167q0 262 -1 266q0 35 -15 52q-26 33 -63 33q-25 0 -37 -17q-25 -27 -25 -138q0 -36 1 -51
q0 -7 6 -7l89 3q-1 -5 -10 -63q-14 0 -40 0.5t-40 0.5q-5 0 -5 -6l3 -255q0 -22 5.5 -30.5t20.5 -12.5q7 -2 17.5 -3.5t13.5 -2.5q1 -4 0 -18t-3 -17q-15 0 -55 2t-71 2q-16 0 -61 -2t-55 -2q-3 4 -3 17.5t3 17.5z" />
    <glyph glyph-name="f_i" unicode="fi" horiz-adv-x="541" 
d="M19 31q31 7 38 9q18 6 18 32q1 56 1 265q0 2 -2.5 4.5t-4.5 2.5l-48 4q0 18 9 33q20 4 42 16q5 2 5 7q3 141 124 220q61 40 125 40q53 0 87 -19t46 -46q7 -15 0 -30q-15 -35 -56 -57q-18 -6 -30 2q-4 4 -35 45q-38 54 -76 54q-17 0 -33 -16q-27 -29 -27 -152q0 -23 1 -38
q0 -7 6 -7l148 1q70 0 116 13q-2 -23 -2 -176q0 -112 1 -158q0 -34 21 -41q8 -3 35 -8q3 -4 1 -17.5t-6 -16.5q-11 0 -51 1.5t-69 1.5q-33 0 -69 -1.5t-41 -1.5q-2 4 -2 17.5t2 16.5q19 4 30 8q17 5 18 37q2 44 2 137q0 81 -2 113q0 6 -4 12.5t-10 6.5h-119q-5 0 -5 -6
q1 -62 2 -153t1 -107q1 -35 25 -42q5 -2 14 -3t18 -3q2 -4 1.5 -17.5t-4.5 -17.5q-5 0 -43.5 2t-81.5 2q-16 0 -61.5 -2t-54.5 -2q-2 4 -2.5 18t2.5 17z" />
    <glyph glyph-name="f_j" unicode="fj" horiz-adv-x="540" 
d="M19 31q31 7 38 9q18 6 18 32q1 56 1 265q0 2 -2.5 4.5t-4.5 2.5l-48 4q0 18 9 33q20 4 42 16q5 2 5 7q3 141 124 220q60 40 125 40q53 0 87 -19t46 -46q7 -15 0 -30q-15 -35 -56 -57q-18 -6 -30 2q-7 6 -13 13.5t-12.5 17t-10.5 14.5q-37 54 -75 54q-17 0 -34 -17
q-26 -28 -26 -151l1 -38q0 -7 6 -7l146 1q56 0 119 10v-152t-1 -155q-2 -89 -11 -133q-19 -83 -70 -141t-91 -75q-20 1 -36 17q-4 9 0 13q45 22 60.5 61t15.5 128v31q0 220 -5 321q0 6 -3.5 12.5t-9.5 6.5h-115q-5 0 -5 -6q1 -62 2 -153t1 -107q1 -35 25 -42q5 -2 14 -3
t18 -3q2 -4 1.5 -17.5t-4.5 -17.5q-5 0 -43.5 2t-81.5 2q-16 0 -61.5 -2t-54.5 -2q-2 4 -2.5 18t2.5 17z" />
    <glyph glyph-name="f_k" unicode="fk" horiz-adv-x="773" 
d="M18 31q34 7 40 10q17 6 17 34q1 80 1 258q0 7 -6 7l-48 3q0 23 9 36q25 4 41 16q5 4 5 8q2 77 31.5 129.5t92.5 93.5q26 17 58.5 27.5t54.5 10.5q50 0 91 -19q9 -4 21 0q14 4 43 18q2 -1 6.5 -6.5t4.5 -8.5q-7 -22 -8 -88q-2 -125 -1 -344q21 3 44 23q32 28 54.5 58
t22.5 43t-17 18q-6 1 -17 3t-20 3.5t-10 1.5q-1 5 0.5 18t4.5 16q110 -2 201 7q2 -2 2 -16t-2 -19q-54 -10 -76 -33l-78 -85v-5q14 -27 72.5 -100.5t86.5 -96.5q10 -8 15 -10.5t15.5 -5.5t29.5 -5q2 -1 0.5 -16t-4.5 -18q-30 -5 -130 -5q-42 2 -58 19q-30 27 -109 145
q-18 28 -27 32q0 -71 1 -106q1 -24 6.5 -32t19.5 -12q22 -5 32 -7q2 -4 0 -17.5t-5 -16.5q-15 0 -55 1.5t-66 1.5q-18 0 -56 -1.5t-56 -1.5q-2 4 -2 17.5t2 16.5q30 7 31 7q17 8 18 40q2 26 2 157v98v72.5v49v33v19.5v13v9q0 34 -15 51q-28 33 -64 33q-24 0 -38 -18
q-25 -25 -25 -135q0 -38 1 -53q0 -7 7 -7l87 3q-1 -5 -10 -63q-15 0 -39.5 0.5t-38.5 0.5q-6 0 -6 -6l3 -255q1 -22 6 -30.5t20 -12.5q7 -2 18 -3.5t14 -2.5q1 -4 0 -18t-3 -17q-15 0 -55 2t-71 2q-16 0 -61 -2t-55 -2q-3 4 -3 17.5t3 17.5z" />
    <glyph glyph-name="f_l" unicode="fl" horiz-adv-x="544" 
d="M18 31q34 7 40 10q17 6 17 34q2 160 2 258q0 2 -2.5 4.5t-4.5 2.5l-47 3q0 23 9 36q22 4 41 17q4 3 4 7q2 74 31.5 128t92.5 95q59 38 112 38q55 0 93 -19q7 -4 20 0q19 6 43 18q3 -1 7 -6.5t4 -8.5q-7 -30 -7 -84q-1 -22 -1 -61t-0.5 -93.5t-0.5 -90.5q0 -214 2 -243
q1 -30 23 -37q5 -2 36 -8q2 -4 1 -16.5t-4 -17.5q-7 0 -54 1.5t-75 1.5q-20 0 -57 -1.5t-49 -1.5q-2 4 -3 17t1 17q17 2 32 8q9 4 12.5 11t4.5 27q2 36 2 247q0 156 -1 205q0 34 -15 52q-25 32 -65 32q-19 0 -35 -16q-26 -30 -26 -132q0 -43 1 -58q0 -7 7 -7l89 3
q-4 -16 -9 -63q-15 0 -41 0.5t-40 0.5q-6 0 -6 -6l3 -255q1 -21 6.5 -29.5t20.5 -13.5q6 -2 17 -3.5t14 -2.5q2 -4 1 -17.5t-3 -17.5q-16 0 -55.5 2t-70.5 2q-16 0 -61.5 -2t-55.5 -2q-2 5 -2.5 18t2.5 17z" />
    <glyph glyph-name="f_t" unicode="ft" horiz-adv-x="590" 
d="M19 31q36 8 39 9q17 6 17 34q1 80 1 262q0 7 -6 7l-48 3q0 20 10 33q27 8 41 17q4 3 4 7q4 148 119 223q25 17 57 28t52 10q63 0 87 -33v-17q-6 -16 -22.5 -39t-26.5 -32h-15q-61 65 -89 65q-16 0 -23 -11q-14 -20 -14 -115q0 -60 1 -75q0 -2 2.5 -4.5t4.5 -2.5h121
q6 3 6 8v82q24 7 61.5 24.5t49.5 27.5q15 5 24 3q-4 -31 -4 -137q0 -8 4 -8l108 4q-9 -37 -10 -64q-18 0 -50.5 0.5t-49.5 0.5q-1 0 -3 -2.5t-2 -3.5q0 -19 -0.5 -76t-0.5 -82q0 -55 4 -75q3 -16 17.5 -27.5t35.5 -11.5q31 0 53 15q6 -10 0 -35q-41 -54 -121 -54
q-74 0 -102 49q-10 18 -12.5 39t-2.5 71q0 26 0.5 95.5t0.5 89.5q0 9 -6 11h-122q-6 0 -6 -7l4 -253q1 -35 26 -43q6 -2 53 -10q1 -4 -1 -17.5t-4 -16.5q-6 0 -52.5 1.5t-99.5 1.5q-28 0 -65.5 -1.5t-44.5 -1.5q-2 4 -2.5 17.5t2.5 16.5z" />
    <glyph glyph-name="longs_b" unicode="&#x17f;b" horiz-adv-x="793" 
d="M18 31q36 8 40 9q17 6 17 34q1 80 1 260q0 7 -6 7l-48 3q0 21 10 36q18 4 40 17q5 3 5 7q3 145 122 221q60 39 115 39q49 0 88 -17q10 -4 21 -1q20 6 43 17q3 -1 7 -6.5t4 -8.5q-7 -22 -8 -88v-183q1 -4 5 -2q86 39 125 39q66 0 111 -48q46 -50 46 -133q0 -114 -88 -182
q-28 -22 -87 -42.5t-95 -20.5q-93 0 -154 29q6 36 6 71q1 60 1 176q0 248 -1 264q0 36 -14 53q-28 32 -61 32q-18 0 -32 -17q-29 -33 -29 -174v-85l3 -257q0 -21 6 -29t21 -13q7 -2 21.5 -4t18.5 -3q1 -3 -0.5 -17.5t-2.5 -17.5q-16 0 -60 2t-75 2q-16 0 -61 -2t-55 -2
q-3 4 -3 17.5t3 17.5zM510 345q-25 0 -35 -5q-6 -2 -6 -14q-3 -161 2 -218q4 -36 16 -46q23 -22 60 -22q31 0 50 26q28 36 28 112q0 80 -32 122q-31 45 -83 45z" />
    <glyph glyph-name="longs_h" unicode="&#x17f;h" horiz-adv-x="803" 
d="M18 31q34 7 39 9q18 6 18 34q1 80 1 260q0 7 -6 7l-48 3q0 22 9 36q20 4 41 17q5 4 5 7q3 144 124 222q57 38 110 38q47 0 91 -19q9 -4 21 0q14 4 43 18q2 -1 6.5 -6.5t4.5 -8.5q-7 -22 -8 -88v-59v-74v-62q0 -2 1.5 -3t3.5 0q74 52 127 52q63 0 97 -42.5t34 -122.5v-185
q0 -11 7 -15q15 -12 51 -18q2 -3 0 -17.5t-4 -16.5q-2 0 -41.5 1.5t-79.5 1.5q-69 0 -108 -3q-2 5 -2 18t2 16q19 3 26 7q11 4 14 12t4 30q5 164 -4 202q-5 26 -26 41.5t-49 15.5q-26 0 -46 -10q-6 -2 -6 -12q0 -215 1 -230q0 -2 0.5 -8t0.5 -8t0.5 -6.5t1 -6.5t1.5 -5
t2.5 -4.5l3.5 -3.5t4.5 -3.5t5.5 -2.5q18 -5 31 -8q1 -3 1 -16t-2 -18q-12 0 -51.5 1.5t-67.5 1.5q-25 0 -63 -1.5t-52 -1.5q-1 5 -1 18.5t1 15.5q19 3 34 9q12 3 15 14.5t5 40.5q1 39 1 208q0 98 -4 226q0 34 -16 52q-24 32 -57 32q-18 1 -32 -16q-31 -33 -31 -191v-74
l3 -252q1 -22 6.5 -30.5t19.5 -12.5q7 -2 16.5 -3.5t12.5 -2.5q1 -3 -0.5 -17.5t-2.5 -17.5q-6 0 -44.5 2t-78.5 2q-16 0 -61 -2t-55 -2q-3 4 -3 17.5t3 17.5z" />
    <glyph glyph-name="longs_i" unicode="&#x17f;i" horiz-adv-x="541" 
d="M19 31q31 7 38 9q18 6 18 32q1 80 1 264q0 6 -7 6l-48 4q0 22 9 35q20 4 43 16q4 3 4 8q4 141 125 219q27 18 62 29t60 11q54 0 89 -19t46 -47q7 -14 0 -29q-14 -33 -56 -57q-17 -6 -30 3q-8 8 -19.5 23.5t-16.5 20.5q-41 54 -77 54q-18 0 -32 -16q-27 -33 -26 -203
q0 -171 4 -315q1 -20 5.5 -29t18.5 -13q8 -2 31 -6q1 -4 0 -18t-3 -17q-17 0 -54.5 2t-68.5 2q-16 0 -61.5 -2t-54.5 -2q-2 4 -2.5 18t2.5 17zM529 31q1 -5 -0.5 -18t-4.5 -16q-5 0 -44.5 1.5t-76.5 1.5q-32 0 -70.5 -1.5t-46.5 -1.5q-2 4 -2.5 17.5t1.5 16.5q27 5 38 9
q15 4 16 39q1 22 1 132v91q-2 17 -5 21q-10 14 -43 27q-1 3 0 15.5t2 15.5q23 0 82.5 10t94.5 23q0 -19 -0.5 -78.5t-0.5 -89.5q0 -118 1 -164q1 -22 5 -30t14 -12q21 -6 39 -9z" />
    <glyph glyph-name="longs_k" unicode="&#x17f;k" horiz-adv-x="772" 
d="M18 31q32 7 39 10q18 6 18 33q1 80 1 260q0 7 -6 7l-48 3q0 24 9 35q19 5 41 18q5 3 5 7q3 144 124 222q57 38 108 38q49 0 93 -19q9 -4 21 0q14 4 43 18q2 -1 6.5 -6.5t4.5 -8.5q-7 -22 -8 -88q0 -28 0.5 -169.5t0.5 -174.5q22 3 45 23q31 27 52.5 57.5t21.5 43.5
t-16 18q-6 1 -17.5 3t-20.5 3.5t-10 1.5q-1 5 0.5 18t4.5 16q110 -2 201 7q2 -2 2 -16t-2 -19q-54 -10 -75 -32q-14 -15 -40.5 -45.5t-35.5 -40.5q-2 -2 0 -5q15 -28 70.5 -101.5t83.5 -95.5q10 -8 14.5 -11t15.5 -6t30 -4q1 -3 -0.5 -17t-4.5 -17q-29 -5 -130 -5
q-38 1 -58 21q-23 23 -103 143q-18 29 -28 32q1 -53 1 -106q1 -24 6.5 -32t20.5 -12q23 -6 32 -7q0 -24 -6 -34q-15 0 -54.5 1.5t-65.5 1.5q-18 0 -58 -1.5t-59 -1.5q-2 4 -2 17.5t2 16.5q21 3 34 7q16 7 19 40q2 26 2 162q0 161 -4 289q0 33 -14 51q-27 33 -59 33
q-20 0 -32 -16q-31 -33 -31 -193v-72l3 -252q1 -21 7 -29.5t21 -13.5q7 -2 16.5 -3.5t12.5 -2.5q1 -4 0 -18t-3 -17q-6 0 -45.5 2t-79.5 2q-16 0 -61 -2t-55 -2q-3 4 -3 17.5t3 17.5z" />
    <glyph glyph-name="longs_l" unicode="&#x17f;l" horiz-adv-x="543" 
d="M17 31q28 6 40 10q17 6 17 33q2 160 2 260q0 7 -6 7l-48 3q0 22 9 36q15 3 41 17q4 3 4 7q5 144 125 222q57 38 110 38q54 0 93 -17q10 -4 21 -1q22 7 42 17q3 -1 7 -6.5t4 -8.5q-7 -30 -7 -88q-1 -58 -1 -241q0 -211 2 -240q2 -21 5.5 -28.5t16.5 -11.5q15 -4 36 -8
q2 -4 0 -16t-5 -18q-6 0 -45.5 1.5t-82.5 1.5q-19 0 -55.5 -1.5t-53.5 -1.5q-1 4 -1.5 17.5t0.5 16.5q20 3 35 8q10 4 14 14t5 38q1 36 1 237q0 173 -1 205q-2 35 -15 50q-26 32 -61 32q-20 0 -33 -17q-30 -33 -30 -202v-68q2 -224 3 -248q1 -22 6 -30t19 -13
q7 -2 16.5 -3.5t12.5 -2.5q1 -3 -0.5 -17.5t-2.5 -17.5q-6 0 -44 2t-78 2q-16 0 -61.5 -2t-55.5 -2q-2 5 -2.5 18t2.5 17z" />
    <glyph glyph-name="longs_longs" unicode="&#x17f;&#x17f;" horiz-adv-x="547" 
d="M17 30q36 8 40 9q18 6 18 33q1 80 1 262q0 7 -6 7l-49 3q0 24 9 35q20 6 44 18q4 4 4 8q8 125 121 199q61 40 120 40q14 0 26 -1t22 -3.5t17 -5t15.5 -6.5t12 -6t11 -7t9.5 -6q4 -3 7 0q62 55 134 55q60 0 80 -31v-19q-12 -31 -46 -65q-9 -3 -15 0q-53 60 -86 60
q-23 0 -30.5 -46t-6.5 -187q3 -285 3 -293q1 -36 28 -43q34 -8 37 -9q1 -6 -0.5 -20.5t-5.5 -14.5q-11 0 -56 2t-77 2q-29 0 -65 -2t-43 -2q-3 5 -3 18.5t3 16.5q28 6 34 8q17 6 17 33q1 80 1 262q0 7 -8 7l-48 3q0 22 9 36q21 4 43 18q5 3 5 10q0 53 24 115q-45 72 -99 72
q-35 0 -50.5 -40.5t-15.5 -141.5q0 -57 1.5 -185t1.5 -148q1 -37 25 -42l32 -7q2 -3 0.5 -17.5t-4.5 -17.5q-11 0 -46.5 2t-77.5 2q-32 0 -71.5 -2t-45.5 -2q-2 5 -2.5 17.5t2.5 16.5z" />
    <glyph glyph-name="longs_longs_i" unicode="&#x17f;&#x17f;i" horiz-adv-x="810" 
d="M16 30q36 8 41 10q18 6 18 32v262q0 7 -6 7l-48 3q0 21 10 36q25 5 42 17q4 2 4 8q10 125 118 196q63 43 129 43q11 0 21 -0.5t18.5 -2.5t15.5 -3.5t13.5 -4.5t11 -5t10 -5.5t8.5 -5.5t8 -6t7 -5q3 -4 7 0q72 58 152 58q54 0 87.5 -18.5t44.5 -47.5q8 -15 0 -30
q-13 -34 -54 -55q-18 -6 -32 2q-10 10 -35 44q-38 54 -74 54q-17 0 -30 -13q-17 -16 -24.5 -57.5t-6.5 -133.5q0 -262 4 -326q1 -21 4.5 -30t16.5 -13q21 -7 37 -9q1 -4 0 -19.5t-5 -15.5q-11 0 -52.5 2t-73.5 2q-29 0 -66 -2t-44 -2q-3 5 -3 18.5t3 16.5q34 7 36 8
q17 6 17 33v80.5v99.5v82q0 7 -6 7l-49 3q0 21 10 36q16 3 41 18q5 2 5 10q4 64 26 112q-18 35 -47 54.5t-56 19.5q-35 0 -51.5 -38t-17.5 -137q-1 -84 4 -339q0 -20 5 -29.5t19 -12.5l33 -7q3 -2 1.5 -17t-4.5 -18q-4 0 -43 2t-83 2q-32 0 -71 -2t-46 -2q-2 4 -2 17t2 17z
M799 31q1 -5 -0.5 -18t-4.5 -16q-4 0 -44 1.5t-77 1.5q-32 0 -67 -1.5t-43 -1.5q-2 4 -2.5 17.5t1.5 16.5q11 2 30 9q17 5 18 39q2 44 2 132q0 77 -1 93q0 14 -5 21q-7 12 -42 26q-1 3 -0.5 15t2.5 15q22 0 81.5 10t93.5 23v-168q0 -118 1 -164q0 -34 19 -42q21 -6 38 -9z
" />
    <glyph glyph-name="longs_longs_l" unicode="&#x17f;&#x17f;l" horiz-adv-x="811" 
d="M16 30q39 8 41 9q17 6 17 33q1 80 1 262q0 7 -5 7l-48 3q0 24 9 35q24 7 41 17q4 3 4 8q7 66 35 113.5t86 85.5q60 41 127 41q62 0 112 -38q4 -4 7 0q73 58 154 58q41 0 80 -17q7 -2 13 0q26 6 51 17q2 -1 6 -6.5t3 -8.5q-9 -24 -10 -87q0 -23 0.5 -108t-0.5 -135
q0 -225 1 -240q2 -20 6 -28t17 -12q8 -3 35 -8q2 -4 1.5 -16.5t-3.5 -17.5q-6 0 -47 1.5t-84 1.5q-19 0 -53 -1.5t-51 -1.5q-2 4 -2.5 17t1.5 17q10 2 35 10q12 6 14 50q2 72 2 233q0 182 -3 232q0 16 -11 26q-24 31 -64 31q-21 0 -32 -14q-31 -36 -30 -189q-1 -177 2 -327
q2 -21 6.5 -30.5t17.5 -13.5q15 -5 35 -8q1 -5 -0.5 -20t-4.5 -15q-12 0 -52.5 2t-72.5 2q-29 0 -66.5 -2t-44.5 -2q-3 5 -3 18.5t3 16.5q25 5 36 9q17 6 17 32q1 80 1 262q0 7 -5 7l-49 3q0 23 10 38q30 9 40 15q3 2 5 9q5 65 23 107q2 7 0 11q-16 31 -44 50t-59 19
q-35 0 -50.5 -37.5t-15.5 -133.5q0 -192 3 -342q1 -20 6 -28.5t19 -12.5q21 -6 34 -8q2 -3 0.5 -17t-3.5 -18q-4 0 -43.5 2t-83.5 2q-32 0 -71.5 -2t-45.5 -2q-2 5 -2.5 17.5t2.5 16.5z" />
    <glyph glyph-name="t_t" unicode="tt" horiz-adv-x="611" 
d="M597 77q2 -3 1.5 -15.5t-2.5 -18.5q-42 -54 -120 -54t-103 49q-11 18 -13.5 39t-2.5 71q0 26 0.5 94t0.5 88q0 10 -6 11h-150q-4 0 -4 -6q0 -18 -0.5 -75.5t-0.5 -82.5q0 -55 4 -75q2 -17 15.5 -28t35.5 -11q31 0 54 14q2 -3 1.5 -15.5t-2.5 -18.5q-41 -54 -120 -54
q-77 0 -103 49q-8 12 -11 29.5t-3.5 30t-0.5 50.5q0 26 0.5 94t0.5 88q0 9 -6 11q-8 1 -24 2t-24 2q2 17 8 34q28 6 40 17q6 3 6 8v85q23 7 60.5 24.5t49.5 27.5q15 5 24 3q-4 -31 -4 -136q0 -7 4 -7h151q5 5 5 9v21.5t0.5 41t0.5 31.5q23 7 60 24.5t49 27.5q17 5 24 3
q-4 -46 -4 -151q0 -7 5 -7q88 2 109 4q-9 -39 -10 -65q-17 0 -49.5 0.5t-49.5 0.5q-1 0 -3 -2.5t-2 -3.5q0 -18 -0.5 -75.5t-0.5 -82.5q0 -55 4 -75q3 -17 16.5 -28t34.5 -11q31 0 55 14z" />
    <glyph glyph-name="u0162_u0068" unicode="&#x162;h" horiz-adv-x="1050" 
d="M162 31q22 3 55 10q19 4 26.5 16.5t9.5 47.5q4 82 4 436q0 2 -2.5 6t-4.5 4q-14 1 -51 1t-54 -1q-33 -2 -51 -37q-19 -42 -33 -82q-4 -4 -20 0t-18 10q13 65 20 174q9 0 14 -2q37 -11 87 -11h436q8 0 8 8l-1 34q0 2 3 6t5 4q20 1 41.5 3.5t35 5.5l27 6t14.5 3q6 -1 6 -8
q0 -2 -0.5 -19.5t-0.5 -49.5v-70q0 -16 -0.5 -84t-0.5 -77q0 -2 1.5 -3t3.5 0q74 52 127 52q63 0 97 -42.5t34 -122.5q0 -166 1 -185q0 -10 6 -15q15 -12 51 -18q2 -3 0.5 -17.5t-4.5 -16.5q-2 0 -41.5 1.5t-79.5 1.5q-67 0 -108 -3q-1 5 -1 18t1 16q18 3 26 7q11 4 14 12
t4 30q5 163 -4 201q-5 26 -25.5 41.5t-48.5 15.5q-27 0 -46 -10q-6 -2 -6 -11q0 -215 1 -230q1 -35 9 -42q4 -4 10 -6q20 -6 30 -8q2 -3 2 -16t-2 -18q-12 0 -51.5 1.5t-67.5 1.5q-25 0 -62.5 -1.5t-51.5 -1.5q-2 5 -2 18.5t2 15.5q18 3 33 9q12 3 15 14.5t4 40.5
q2 39 2 167q0 259 -1 273q-1 6 -5.5 11t-10.5 5q-19 1 -88.5 1.5t-78.5 -0.5q-7 -4 -7 -10q0 -411 2 -452q2 -37 25 -47q12 -4 60 -12q3 -3 2 -16.5t-4 -17.5q-29 0 -77 1.5t-78 1.5q-29 0 -84 -1.5t-83 -1.5q-4 4 -4 17.5t4 16.5zM337 -35q19 0 38 -21t19 -55
q0 -52 -38 -85.5t-96 -44.5q-4 1 -9 13t-3 16q41 17 54.5 31.5t13.5 36.5q0 34 -57 52q-2 2 -2 10.5t2 10.5q11 11 34 23.5t44 12.5z" />
    <glyph glyph-name="Tcaron_h" unicode="&#x164;h" horiz-adv-x="1050" 
d="M162 31q22 3 55 10q19 4 26.5 16.5t9.5 47.5q4 82 4 436q0 2 -2.5 6t-4.5 4q-14 1 -51 1t-54 -1q-33 -2 -51 -37q-19 -42 -33 -82q-4 -4 -20 0t-18 10q13 65 20 174q9 0 14 -2q37 -11 87 -11h436q8 0 8 8l-1 34q0 2 3 6t5 4q20 1 41.5 3.5t35 5.5l27 6t14.5 3q6 -1 6 -8
q0 -2 -0.5 -19.5t-0.5 -49.5v-70q0 -16 -0.5 -84t-0.5 -77q0 -2 1.5 -3t3.5 0q74 52 127 52q63 0 97 -42.5t34 -122.5q0 -166 1 -185q0 -10 6 -15q15 -12 51 -18q2 -3 0.5 -17.5t-4.5 -16.5q-2 0 -41.5 1.5t-79.5 1.5q-67 0 -108 -3q-1 5 -1 18t1 16q18 3 26 7q11 4 14 12
t4 30q5 163 -4 201q-5 26 -25.5 41.5t-48.5 15.5q-27 0 -46 -10q-6 -2 -6 -11q0 -215 1 -230q1 -35 9 -42q4 -4 10 -6q20 -6 30 -8q2 -3 2 -16t-2 -18q-12 0 -51.5 1.5t-67.5 1.5q-25 0 -62.5 -1.5t-51.5 -1.5q-2 5 -2 18.5t2 15.5q18 3 33 9q12 3 15 14.5t4 40.5
q2 39 2 167q0 259 -1 273q-1 6 -5.5 11t-10.5 5q-19 1 -88.5 1.5t-78.5 -0.5q-7 -4 -7 -10q0 -411 2 -452q2 -37 25 -47q12 -4 60 -12q3 -3 2 -16.5t-4 -17.5q-29 0 -77 1.5t-78 1.5q-29 0 -84 -1.5t-83 -1.5q-4 4 -4 17.5t4 16.5zM343 647q-8 -6 -21 -6q-9 9 -63 53.5
t-76 60.5q0 4 7.5 15.5t9.5 11.5q5 0 61.5 -23t68.5 -30q4 -2 9 0q17 9 66.5 31t53.5 22t10.5 -11t4.5 -15q-24 -18 -72.5 -57.5t-58.5 -51.5z" />
    <glyph glyph-name="gamma_gamma" unicode="&#x3b3;&#x3b3;" horiz-adv-x="873" 
d="M15 267q-2 4 -3.5 18t0.5 18q31 53 76 82t82 29q29 0 50 -11.5t38.5 -41t24.5 -87t4 -141.5q0 -3 4 -2q2 0 2 2q38 142 96 214q25 31 58.5 48.5t63.5 17.5q33 0 55.5 -10.5t41.5 -39t27.5 -85.5t7.5 -144q0 -3 4 -2q2 0 2 2q39 166 89 231q37 49 76 49q17 0 39 -15.5
t30 -33.5q0 -20 -3 -25q-52 -3 -101 -58t-78 -123.5t-39 -129.5q0 -5 -2 -17.5t-2 -15.5q0 -14 1.5 -70t2 -87.5t-1.5 -47.5q-6 -14 -22 -14q-29 0 -64 19.5t-35 38.5q0 18 45 157q9 31 8 51q2 238 -117 239q-34 0 -62.5 -22t-49 -61t-34 -80t-23.5 -89q-5 -17 -5 -44
q-1 -14 -1 -66t-1.5 -95.5t-4.5 -55.5q-3 -5 -10.5 -9.5t-11.5 -4.5q-27 0 -65 22.5t-38 41.5q0 5 2.5 15t8 26.5t11.5 32.5t16 44t18 50q10 28 10 54q2 51 -4.5 93.5t-22 78.5t-44 56t-68.5 20q-38 0 -81 -22z" />
    <glyph glyph-name="u03BB_u03BB" unicode="&#x3bb;&#x3bb;" horiz-adv-x="819" 
d="M346 -16q-58 0 -83 61q-20 47 -66 243l-5 -1q-42 -79 -73 -221q-7 -31 -4 -79q0 -1 -4 -3.5t-6 -2.5q-27 0 -58.5 12.5t-30.5 22.5q0 32 34 100q15 32 61 125t60 122q4 11 2 22q-5 33 -16 61q-21 59 -46 79t-58 20q-34 0 -58 -11q-3 2 -5 12t0 13q22 33 61.5 54t74.5 21
q53 0 82.5 -44.5t71.5 -182.5q51 -177 75 -245q14 -38 25 -50t24 -12q17 0 34 32q23 39 56 114t49 124q5 14 3 25q-8 47 -17 69q-23 59 -53.5 81.5t-72.5 22.5q-39 0 -71 -18q-3 1 -6 12t-1 14q27 39 70.5 63.5t77.5 24.5q60 0 98.5 -48t77.5 -180q77 -258 84 -277
q27 -80 67 -80q19 0 35 10q2 -3 3 -15.5t-1 -15.5q-20 -29 -59.5 -50t-77.5 -21q-34 0 -56 46q-21 43 -70 245h-5q-42 -105 -93 -197q-56 -97 -130 -97z" />
    <glyph glyph-name=".notdef" horiz-adv-x="495" 
d="M0 0v693h495v-693h-495zM248 391l168 253h-337zM277 347l169 -253v505zM79 50h337l-168 252zM50 599v-505l168 253z" />
    <glyph glyph-name=".null" horiz-adv-x="0" 
 />
    <glyph glyph-name="nonmarkingreturn" horiz-adv-x="333" 
 />
    <glyph glyph-name="space" unicode=" " horiz-adv-x="177" 
 />
    <glyph glyph-name="exclam" unicode="!" horiz-adv-x="321" 
d="M231 599q18 0 32 -11q0 -22 -25 -170.5t-39 -216.5q-6 -1 -23 2t-20 6q-3 15 -19.5 95t-30.5 151t-16 93q-2 7 4.5 19t14.5 16q19 8 60 12.5t62 3.5zM184 140q31 0 51 -17q25 -24 25 -61q0 -30 -22 -54q-21 -21 -61 -21q-30 0 -51 20q-21 22 -21 57q0 32 26 56
q23 20 53 20z" />
    <glyph glyph-name="quotedbl" unicode="&#x22;" horiz-adv-x="350" 
d="M151 613q0 -46 -8.5 -108.5t-15.5 -77.5q-9 -21 -40 -44q-1 -1 -13 -1q-7 196 -24 238q7 5 39 21t45 17l11 -3q6 -7 6 -42zM300 618q0 -49 -9 -107t-17 -74q-10 -23 -39 -45q0 -1 -3.5 -1h-6.5t-3 1q-6 185 -24 228q7 6 41.5 24.5t42.5 18.5q1 0 6 -1l6 -1q6 -9 6 -43z
" />
    <glyph glyph-name="numbersign" unicode="#" horiz-adv-x="471" 
d="M301 459l28 130q6 6 41 13q5 0 5 -3l-30 -136q0 -4 4 -4q70 0 98 5q2 -18 -7 -37q-34 -40 -106 -43q-6 0 -6 -4l-21 -95q0 -5 4 -5q62 0 96 6q1 -3 -1.5 -18t-5.5 -19q-38 -47 -107 -48q-4 0 -4 -5q-4 -22 -15 -74.5t-13 -64.5q-1 -3 -7 -3q-2 0 -17.5 9t-16.5 11l29 127
h-93q-4 0 -4 -4q-31 -134 -33 -141q-1 -3 -7 -3q-5 2 -19 10.5t-15 10.5q4 16 15 61.5t15 65.5q-75 0 -93 4q-2 6 8.5 41.5t15.5 37.5q23 -3 86 -3l23 103q-70 0 -90 4q-1 9 9 40.5t16 34.5q46 -2 79 -2l25 118q0 1 19.5 7t22.5 6t5 -4l-26 -122q0 -4 3 -6zM286 384h-91
q-3 0 -6 -5l-21 -92q0 -6 3 -6h91z" />
    <glyph glyph-name="dollar" unicode="$" horiz-adv-x="508" 
d="M177 469q0 -50 64 -86q3 -3 5 2l15 165q-1 3 -4 3q-80 -12 -80 -84zM266 208l-16 -162q2 -4 4 -4q32 1 57.5 20.5t25.5 57.5q0 31 -15 50t-52 41q-4 2 -4 -3zM199 -78l7 75q0 5 -4 5q-62 6 -132 27q-19 29 -28 137q1 3 15.5 7.5t19.5 4.5q26 -73 55.5 -99t74.5 -35
q3 -2 5 2l18 177q-2 6 -5 7q-43 24 -66.5 39.5t-48 39t-34.5 50.5t-10 62q0 76 53.5 121t141.5 47q4 0 5 2l7 69q4 3 19 5.5t21 1.5l-8 -74q0 -4 5 -4q18 -1 80 -11q25 -4 54 -6q-13 -57 -21 -132q-2 -2 -17.5 -3t-17.5 1q-5 58 -22 82.5t-62 31.5q-3 0 -4 -3l-17 -179
q1 -5 5 -7q90 -46 118 -70q55 -47 55 -116q0 -77 -55.5 -122t-154.5 -52q-4 0 -5 -4l-7 -71q-4 -3 -19.5 -5.5t-20.5 -0.5z" />
    <glyph glyph-name="percent" unicode="%" horiz-adv-x="725" 
d="M144 15l399 592q19 11 46 14q6 -3 6 -8q-22 -27 -210 -307t-216 -320q-5 -3 -9 -1q-3 2 -9 13.5t-7 16.5zM558 347q58 0 92 -44.5t34 -103.5q0 -100 -58 -146q-49 -40 -111 -40q-58 0 -93.5 43t-35.5 109q0 88 52 137q49 45 120 45zM535 310q-48 0 -48 -117
q0 -71 18.5 -105.5t43.5 -34.5q53 0 53 109q0 65 -17 106.5t-50 41.5zM212 592q61 0 94 -43.5t33 -103.5q0 -97 -60 -145q-50 -41 -111 -41q-57 0 -92 41.5t-35 110.5q0 87 52 136q47 45 119 45zM190 557q-26 0 -37.5 -36t-11.5 -83q0 -71 18.5 -105.5t43.5 -34.5
q53 0 53 110q0 149 -66 149z" />
    <glyph glyph-name="ampersand" unicode="&#x26;" horiz-adv-x="733" 
d="M279 575q-24 0 -40.5 -20t-16.5 -55q0 -63 75 -124q1 -2 3 -2t4 2q42 46 42 111q0 37 -18 62.5t-49 25.5zM198 291q-3 3 -6 0q-25 -32 -25 -76q0 -54 44.5 -96t109.5 -42q56 0 88 29q3 1 0 4q-134 106 -211 181zM295 611q68 0 111.5 -36.5t43.5 -90.5q0 -40 -28 -67.5
t-93 -63.5q-2 -2 0 -4q63 -55 168 -130q1 -1 3 -0.5t3 1.5q32 50 47 97q9 30 -15 39q-16 6 -44 10q-4 1 -3 17.5t4 18.5q6 0 41 -1.5t59 -1.5q29 0 53 0.5t37.5 1.5t17.5 1q3 -3 1.5 -19t-5.5 -18q-5 -1 -39 -10q-29 -9 -41 -31q-25 -36 -49.5 -77t-30.5 -49q-2 -2 1 -6
q127 -86 147 -112q0 -19 -29 -65.5t-43 -58.5q-9 -4 -18 0q-8 13 -35 36q-78 63 -112 88q-3 2 -5 0q-96 -96 -200 -96q-87 0 -144 49.5t-57 131.5q0 42 25 73t102 79q4 4 0 6q-53 58 -53 130q0 66 52 112t128 46z" />
    <glyph glyph-name="quotesingle" unicode="'" horiz-adv-x="202" 
d="M152 613q0 -45 -9 -107t-17 -77q-8 -22 -41 -46q-4 -1 -13 -1q-1 68 -7.5 143.5t-14.5 94.5q6 5 41 20.5t44 16.5q11 0 11 -2q6 -7 6 -42z" />
    <glyph glyph-name="parenleft" unicode="(" horiz-adv-x="399" 
d="M75 271q0 161 72 286.5t182 199.5q4 0 13 -10.5t8 -14.5q-85 -80 -131.5 -185t-46.5 -261q0 -295 167 -462q1 -4 -8.5 -14.5t-15.5 -12.5q-29 13 -66.5 50.5t-78 95.5t-68 145.5t-27.5 182.5z" />
    <glyph glyph-name="parenright" unicode=")" horiz-adv-x="399" 
d="M324 281q0 -161 -71 -285.5t-182 -198.5q-6 1 -15 12t-7 15q87 89 132.5 192t45.5 252q0 155 -41 266.5t-127 197.5q-1 2 10 13.5t13 11.5q32 -15 70.5 -52.5t78.5 -95t66.5 -145t26.5 -183.5z" />
    <glyph glyph-name="asterisk" unicode="*" horiz-adv-x="380" 
d="M228 535q91 35 120 49q2 -1 5 -6t2 -7q-13 -33 -29 -43q-50 -25 -85 -38q71 -61 101 -74q1 -1 0.5 -5.5t-2.5 -6.5q-8 -6 -28.5 -8t-29.5 2q-17 9 -44.5 28t-29.5 20q-19 -85 -21 -120l-7 -2q-16 0 -28.5 18t-10.5 36q3 33 13 79q-53 -19 -121 -40q-5 2 -8 10
q20 44 27 46q8 3 37.5 13t49.5 18q-41 31 -79 74q-10 10 -1 20q27 20 48 20q28 -33 67 -69q15 75 22 95q8 14 61 14q3 -3 3 -7q-5 -10 -32 -116z" />
    <glyph glyph-name="plus" unicode="+" horiz-adv-x="547" 
d="M503 261q0 -9 -6.5 -30.5t-11.5 -22.5t-33.5 -1h-71.5t-70 -1q-7 0 -7 -9v-73t0.5 -72.5t-0.5 -37.5q-1 -5 -24.5 -12t-34.5 -8q-8 0 -8 2v39.5v76v94.5q-74 -1 -191 -1q-2 2 -2 10q1 8 6 31.5t7 28.5q7 -2 114 -2h66v62q0 100 -2 128q7 3 33 7.5t31 4.5t5 -35v-36.5v-61
v-59.5q0 -10 6 -10h192q2 -1 2 -12z" />
    <glyph glyph-name="comma" unicode="," horiz-adv-x="244" 
d="M11 -157q-5 5 -3 9q43 40 63.5 74.5t18.5 75.5q0 30 -40 83q8 13 40 40t46 33t24 0q11 -10 21 -35t11 -52q3 -71 -47 -141.5t-100 -95.5q-4 -2 -16 1.5t-18 7.5z" />
    <glyph glyph-name="hyphen" unicode="-" horiz-adv-x="303" 
d="M52 243l214 6v-12q-1 -13 -7.5 -39t-10.5 -27q-6 -2 -95.5 -4.5t-114.5 -2.5q-1 9 -1 11q1 16 6.5 42t8.5 26z" />
    <glyph glyph-name="period" unicode="." horiz-adv-x="244" 
d="M123 149q32 0 52 -20q25 -21 25 -63q0 -35 -21 -55q-23 -24 -61 -24q-29 0 -51 22q-23 22 -23 59q0 33 24 57t55 24z" />
    <glyph glyph-name="slash" unicode="/" horiz-adv-x="460" 
d="M409 680q5 -2 5 -7q-7 -28 -140 -363t-170 -403q-3 -6 -23 -14t-30 -11q-8 2 -8 7q47 101 162 390.5t150 386.5q1 3 23.5 8.5t30.5 5.5z" />
    <glyph glyph-name="zero" unicode="0" horiz-adv-x="508" 
d="M266 596q98 0 147 -66q64 -74 64 -224q0 -209 -113 -285q-50 -33 -115 -33q-78 0 -123 34q-96 71 -96 274q0 77 23.5 145t72.5 108q56 47 140 47zM249 557q-17 0 -28 -11q-47 -45 -47 -230q0 -146 24.5 -216.5t66.5 -70.5q19 0 31 12q41 39 41 247q0 131 -23 200t-65 69z
" />
    <glyph glyph-name="one" unicode="1" horiz-adv-x="508" 
d="M422 32q2 -3 1 -17.5t-5 -17.5q-21 0 -79 1.5t-90 1.5q-37 0 -85.5 -1.5t-65.5 -1.5q-3 3 -3 17t3 17q14 2 30.5 4t25.5 3q20 5 27 20.5t8 43.5q1 20 3 188q0 151 -3 178q-2 29 -25 34q-13 3 -52 8q-3 4 -1.5 18.5t4.5 16.5q91 6 207 51q3 1 9 -2t6 -6q-5 -47 -5 -157
q0 -263 3 -325q2 -31 8.5 -46.5t23.5 -19.5q24 -6 55 -8z" />
    <glyph glyph-name="two" unicode="2" horiz-adv-x="508" 
d="M176 491q-63 0 -119 -60q-4 -1 -14.5 10t-9.5 16q41 67 96.5 103t113.5 36q71 0 121.5 -50.5t50.5 -131.5q0 -50 -25.5 -96t-82.5 -103q-22 -22 -106 -94l-1 -3q0 -2 1 -3.5t4 -1.5q55 -8 176 -5q39 2 79 84q4 2 17.5 -3t15.5 -9q-9 -38 -29 -95.5t-36 -76.5
q-7 -10 -50 -11q-42 -2 -141 0.5t-127 2.5q-34 0 -68 -2q-3 15 -3 31q106 78 175 168q65 89 65 172q0 54 -26.5 88t-76.5 34z" />
    <glyph glyph-name="three" unicode="3" horiz-adv-x="508" 
d="M256 596q70 0 112.5 -40t42.5 -101q0 -36 -24.5 -63t-70.5 -56q-3 -2 -1 -4q145 -45 145 -158q0 -49 -27.5 -93t-74.5 -74q-75 -49 -168 -49q-57 0 -96 17q-22 11 -35 38q-15 41 -18 75q1 3 12.5 9t16.5 7q26 -57 79 -84q34 -18 82 -18q39 0 67.5 29t28.5 84
q0 60 -40 99.5t-106 39.5q-13 0 -32 -2q-1 5 8.5 29t13.5 27q65 13 92.5 35t27.5 61q0 41 -25.5 70.5t-73.5 29.5q-55 0 -113 -52q-3 0 -7.5 5.5t-7 13t-2.5 10.5q31 42 83 78.5t111 36.5z" />
    <glyph glyph-name="four" unicode="4" horiz-adv-x="508" 
d="M485 159q-14 0 -44 0.5t-45 0.5q-4 0 -4 -5q0 -29 0.5 -86.5t0.5 -86.5q-69 0 -144 -13l2 187q0 5 -4 5l-129 1q-79 0 -104 -1q-3 20 6 41q196 275 280 383q46 9 88 11l2 -362q0 -5 4 -5q81 2 104 4q-10 -34 -13 -74zM102 230q28 -2 85 -2h60q4 0 4 5l4 223q-1 1 -4 1
q-17 -20 -70 -98t-81 -123q0 -6 2 -6z" />
    <glyph glyph-name="five" unicode="5" horiz-adv-x="508" 
d="M399 599q3 0 9 -5t6 -8q0 -9 -15 -42.5t-34 -55.5q-20 -25 -51 -25q-36 0 -79 4t-44 4q-8 0 -10 -6q-10 -19 -17 -41q-1 -2 1 -6t4 -5q10 -5 49.5 -22t77 -34.5t59.5 -29.5q51 -29 76.5 -65t25.5 -91q0 -93 -82.5 -153t-179.5 -60q-88 0 -139 51q-14 18 -14 34
q0 27 30 69q6 6 14 6q75 -107 176 -107q36 0 57.5 23.5t21.5 57.5q0 71 -78 121q-29 20 -98 52t-75 36q-2 5 -2.5 18t0.5 19q13 47 46 125t56 110q16 17 28 17q90 -6 123 -6q36 0 58 15z" />
    <glyph glyph-name="six" unicode="6" horiz-adv-x="508" 
d="M455 603q-194 -93 -251 -241q-1 -2 0 -4t3 -1q75 36 115 36q62 0 108.5 -47.5t46.5 -130.5q0 -68 -34.5 -122.5t-97.5 -84.5q-49 -22 -100 -22q-106 0 -159.5 65.5t-53.5 160.5q0 143 116.5 261.5t293.5 161.5q4 -1 9.5 -15.5t3.5 -16.5zM227 324q-15 0 -29 -6
q-9 -4 -14 -19q-9 -28 -9 -80q0 -93 28.5 -141.5t72.5 -48.5q30 0 50.5 32t20.5 91q0 80 -33 126t-87 46z" />
    <glyph glyph-name="seven" unicode="7" horiz-adv-x="508" 
d="M479 586q2 -1 4.5 -8t1.5 -9q-21 -64 -145.5 -316t-136.5 -283q-3 -4 -7 -6q-23 2 -42 17q-2 4 -1.5 10.5t1.5 9.5q16 32 70.5 136t99 191t60.5 126q0 7 -2 7q-203 0 -244 -3q-24 -2 -37.5 -16t-39.5 -60q-4 -2 -17.5 3.5t-16.5 10.5q39 130 48 195q31 -7 82 -7h212
q85 0 110 2z" />
    <glyph glyph-name="eight" unicode="8" horiz-adv-x="508" 
d="M266 596q76 0 124 -40.5t48 -105.5q0 -59 -98 -119q-2 -2 1 -4q65 -42 94 -77t29 -86q0 -70 -62.5 -122.5t-159.5 -52.5q-100 0 -149 45.5t-49 106.5q0 33 26.5 63t94.5 68q3 3 0 5q-98 71 -98 151q0 78 62 124q55 44 137 44zM248 557q-31 0 -51 -22t-20 -52
q0 -37 27 -64t101 -71q2 -2 5 1q33 40 33 93q0 49 -25.5 82t-69.5 33zM266 29q36 0 57 20.5t21 54.5q0 38 -30 69t-112 80q-3 3 -7 -1q-42 -44 -42 -98q0 -48 33 -86.5t80 -38.5z" />
    <glyph glyph-name="nine" unicode="9" horiz-adv-x="508" 
d="M86 -50q-5 2 -11 15.5t-4 19.5q184 84 244 250q1 5 -4 5q-34 -21 -71 -34t-56 -13q-70 0 -113 54t-43 127q0 131 119 194q52 28 115 28q102 0 158 -70.5t56 -171.5q0 -138 -105.5 -250t-284.5 -154zM232 556q-31 0 -53.5 -32.5t-22.5 -89.5q0 -82 34.5 -123.5t85.5 -41.5
q19 0 41 10q9 6 11 16q8 39 8 68q0 84 -26 138.5t-78 54.5z" />
    <glyph glyph-name="colon" unicode=":" horiz-adv-x="311" 
d="M156 142q30 0 51 -19q25 -22 25 -60q0 -34 -21 -52q-22 -23 -59 -23q-28 0 -52 21q-21 20 -21 56q0 31 23 56q24 21 54 21zM156 384q33 0 52 -19q24 -21 24 -61q0 -31 -21 -51q-22 -23 -58 -23q-29 0 -52 20q-22 21 -22 57q0 35 23 56t54 21z" />
    <glyph glyph-name="semicolon" unicode=";" horiz-adv-x="311" 
d="M157 383q32 0 51 -17q25 -22 25 -60q0 -33 -21 -51q-22 -23 -60 -23q-28 0 -51 20q-22 21 -22 56q0 31 24 55q23 20 54 20zM41 -157q-5 5 -3 9q43 40 63.5 74.5t19.5 75.5q-1 32 -40 83q7 13 39.5 40t46.5 33q13 6 23 0q11 -10 21 -35t11 -52q3 -68 -47 -140.5
t-100 -96.5q-3 -2 -15.5 1.5t-18.5 7.5z" />
    <glyph glyph-name="less" unicode="&#x3c;" horiz-adv-x="547" 
d="M461 397q-6 -5 -32 -19.5t-63.5 -34.5t-72.5 -37.5t-72.5 -37t-50.5 -25.5q-5 -3 -1 -7q10 -6 86.5 -43t146.5 -73t81 -47q2 -3 -7 -26.5t-14 -31.5q-2 -4 -8 -4q-31 24 -177 98.5t-214 101.5q-1 5 5 26.5t9 24.5q75 35 223.5 112.5t171.5 96.5q4 0 6 -5q0 -13 -6 -39
t-11 -30z" />
    <glyph glyph-name="equal" unicode="=" horiz-adv-x="547" 
d="M487 298l-439 -2q-4 2 -4 9q3 38 12 60q7 -2 115 -2h332q2 -5 1 -10q-11 -54 -17 -55zM487 117l-440 -2q-3 1 -3 9q6 45 13 60q7 -2 114 -2h332q1 -2 1 -10q-14 -54 -17 -55z" />
    <glyph glyph-name="greater" unicode="&#x3e;" horiz-adv-x="547" 
d="M85 85q10 9 63.5 37t140.5 72t88 45q5 3 1 7q-10 6 -86.5 43t-146.5 73t-81 47q-3 3 6 25.5t14 32.5q2 4 8 4q33 -24 179 -99t213 -101q1 -5 -5.5 -27t-8.5 -24q-75 -35 -223.5 -112.5t-171.5 -96.5q-3 0 -6 5q0 13 5.5 39t10.5 30z" />
    <glyph glyph-name="question" unicode="?" horiz-adv-x="387" 
d="M211 303q0 -21 28 -52q2 -2 0.5 -8t-3.5 -8q-6 -6 -34 -19t-36 -15q-12 -2 -25 2q-24 10 -38 30t-14 38q0 26 12 35q10 6 55.5 28.5t56.5 28.5q25 14 25 37q0 56 -121 89q-8 3 -26 7q-13 3 -13 20q0 11 14.5 40t26.5 37q12 10 31 10q70 0 128 -44q67 -49 67 -111
q0 -45 -18 -61q-7 -7 -20 -16t-24 -15t-29.5 -15.5t-26.5 -14.5q-16 -9 -16 -23zM188 140q30 0 52 -17q24 -24 24 -61q0 -30 -22 -54q-21 -21 -61 -21q-30 0 -51 20q-21 22 -21 57q0 32 24 55q24 21 55 21z" />
    <glyph glyph-name="at" unicode="@" horiz-adv-x="837" 
d="M596 60h1q41 0 85.5 51t44.5 144q0 73 -23.5 129t-63 88.5t-86 49t-98.5 16.5q-40 0 -82 -12t-87 -42t-79.5 -74.5t-57 -116t-22.5 -159.5q0 -71 15.5 -128.5t41 -91.5t51 -53.5t51.5 -25.5q38 -10 70 -7q4 -4 0 -15q-21 -22 -76 -22q-16 0 -41.5 10t-59.5 35t-63 61
t-49 96t-20 132q0 181 126 319q134 146 323 146q90 0 159 -44.5t102 -109t33 -134.5q0 -79 -29.5 -142.5t-75 -100t-95 -55.5t-95.5 -19q-29 0 -40.5 21t-6.5 56q4 36 6 48q0 2 -2.5 3t-3.5 -1q-36 -48 -87.5 -87t-85.5 -39q-31 0 -44 30t-13 70q0 58 25 120t64 103
q30 32 94 65t113 33q63 0 110 -15q-13 -31 -20 -68q-36 -180 -37 -218q0 -46 28 -46zM368 92q43 0 89 88q14 28 29 93l17 67q-17 12 -51 12q-57 0 -88 -73q-24 -66 -24 -123q-1 -64 28 -64z" />
    <glyph glyph-name="A" unicode="A" horiz-adv-x="627" 
d="M-20 31q53 8 71.5 21.5t37.5 58.5q77 182 161 424q17 42 20 70q30 -2 52 -2t50 2l17 -58q4 -11 66 -185.5t82 -227.5q25 -64 41.5 -79t71.5 -24q2 -3 0.5 -17t-4.5 -17q-6 0 -53.5 1.5t-92.5 1.5q-48 0 -94 -1.5t-59 -1.5q-2 5 -2 18t2 16q40 8 49 14q14 8 10 19
q-14 56 -46 137q-7 7 -10 7h-76q-66 0 -80 -1q-6 0 -11 -9q-38 -110 -38 -124q2 -28 28 -33q22 -5 49 -10q2 -3 0.5 -17t-3.5 -17q-11 0 -52 1.5t-74 1.5q-19 0 -57.5 -1.5t-55.5 -1.5q-2 4 -2.5 17t2.5 17zM275 459h-4q-11 -31 -33.5 -99t-28.5 -86q-2 -7 2 -7q11 -1 57 -1
q57 0 67 1q3 0 3 5q-39 122 -63 187z" />
    <glyph glyph-name="B" unicode="B" horiz-adv-x="629" 
d="M29 572q-3 4 -2.5 18t2.5 16q5 0 52 -1.5t91 -1.5q45 0 107 1.5t69 1.5q196 0 196 -137q0 -42 -29 -76t-82 -49q-1 -1 -1 -3t1 -3q154 -31 154 -149q0 -114 -120 -168q-65 -29 -171 -29q-19 0 -130 2.5t-148 2.5q-2 5 -2 18.5t3 15.5q46 6 64 13q21 7 25 45q2 26 2 215
q0 161 -2 215q-1 20 -7 29t-20 14q-20 8 -52 10zM282 564q-10 0 -22 -4q-5 -2 -7 -13q-2 -29 -2 -194q0 -5 5 -5q9 -1 47 -1q52 0 67 9q38 23 38 82q0 58 -31.5 92t-94.5 34zM332 31q47 0 74.5 35.5t27.5 100.5t-38.5 101.5t-108.5 36.5q-23 0 -31 -1q-5 0 -5 -6
q0 -178 2 -209q0 -16 14 -32q12 -13 32 -19.5t33 -6.5z" />
    <glyph glyph-name="C" unicode="C" horiz-adv-x="669" 
d="M567 435q-6 36 -10.5 53t-16 36.5t-30.5 30.5q-46 26 -117 26q-83 0 -131 -66t-48 -197q0 -54 12.5 -102t37.5 -89.5t69 -66t102 -24.5q63 0 97 31q37 32 76 100q21 -5 30 -21q-10 -34 -35.5 -80.5t-45.5 -59.5q-79 -24 -150 -24q-171 0 -264 83t-93 243q0 87 42 159.5
t122 111.5q84 42 203 42q45 0 118.5 -7.5t84.5 -8.5q-16 -83 -16 -167q-3 -4 -19.5 -5.5t-17.5 2.5z" />
    <glyph glyph-name="D" unicode="D" horiz-adv-x="727" 
d="M24 572q-2 4 -1 17.5t3 16.5q10 0 72 -1.5t78 -1.5q31 0 87.5 2t100.5 2q132 0 210 -62q49 -40 75.5 -100.5t26.5 -128.5q0 -150 -100 -237q-100 -86 -280 -86q-32 0 -114.5 2t-127.5 2h-38q-3 5 -3 19t3 15q29 3 59 10q28 7 33 46q3 40 3 229q0 156 -3 202
q-2 20 -7 28.5t-21 14.5q-15 6 -56 11zM256 95q2 -19 15 -32q28 -27 84 -27q64 0 110 57q57 78 57 208q0 71 -26.5 133.5t-73.5 96.5q-48 35 -127 35q-26 0 -33 -5q-5 -1 -8 -13q-1 -40 -1 -248q0 -175 3 -205z" />
    <glyph glyph-name="E" unicode="E" horiz-adv-x="586" 
d="M30 572q-3 4 -2 18t4 16q18 0 71.5 -1.5t79.5 -1.5h201q88 0 130 6q3 0 3 -4q-8 -34 -14 -151q-4 -3 -19 -4t-19 1q-9 53 -19 74q-12 24 -41 26q-19 2 -73.5 2.5t-65.5 -1.5q-3 -1 -6.5 -7.5t-3.5 -10.5v-194q0 -8 7 -8q111 0 127 1q28 1 36 35q2 6 4.5 19t3.5 17
q4 2 20 1.5t20 -3.5q0 -4 -2.5 -41t-2.5 -56q0 -45 2 -101q-4 -2 -19.5 -2.5t-19.5 1.5l-10 41q-10 25 -34 29q-18 2 -125 2q-2 0 -4.5 -3.5t-2.5 -5.5v-176q0 -28 21 -33q33 -7 124 -7q34 0 49.5 5.5t31.5 24.5q27 31 53 92q5 1 19.5 -4t17.5 -9q-22 -102 -46 -147
q-7 -16 -52 -16q-39 0 -134.5 2t-151.5 2q-26 0 -89.5 -1.5t-90.5 -1.5q-2 6 -2 18t2 16q57 8 74 13q28 8 28 48q3 57 3 241q0 152 -3 188q-1 20 -7 28.5t-21 13.5t-52 9z" />
    <glyph glyph-name="F" unicode="F" horiz-adv-x="559" 
d="M23 572q-3 5 -2 18.5t3 15.5q13 0 65.5 -1.5t87.5 -1.5h223q86 0 121 7q7 -3 5 -8q-12 -55 -17 -157q-6 -3 -18.5 -4t-16.5 2q-12 63 -24 84q-11 20 -40 24q-22 2 -77.5 2t-68.5 -2q-10 -2 -10 -17q-1 -51 -1 -208q0 -6 6 -6q104 0 135 1q31 2 40 28q8 21 13 46
q4 2 19 1.5t20 -3.5q-5 -62 -5 -102q0 -20 1 -54t1 -49q-3 -3 -17.5 -4t-20.5 1q-3 18 -12 48q-9 25 -33 27q-36 3 -142 3q-5 0 -5 -7q0 -118 1 -165q0 -43 29 -50q8 -2 18 -3.5t24.5 -3.5t23.5 -3q1 -6 0 -18.5t-4 -15.5q-27 0 -78 1.5t-79 1.5q-26 0 -77 -1.5t-81 -1.5
q-3 5 -3.5 17.5t2.5 15.5q7 1 23.5 3t23.5 4q18 4 24 14.5t7 33.5q3 34 3 221q0 172 -2 211q-1 24 -7 32.5t-22 12.5t-56 10z" />
    <glyph glyph-name="G" unicode="G" horiz-adv-x="713" 
d="M649 44q0 -16 -6 -24q-123 -38 -233 -38q-172 0 -265.5 80.5t-93.5 242.5q0 98 47.5 171.5t132.5 108.5q83 36 202 36q54 0 126.5 -10.5t80.5 -11.5q-19 -83 -17 -176q-4 -4 -20 -5.5t-20 1.5q-11 94 -45 121q-48 40 -135 40q-82 0 -135 -60t-53 -199q0 -132 58.5 -214.5
t154.5 -82.5q28 0 40 11q12 7 14 30q6 48 2 102q-2 27 -8.5 39.5t-26.5 18.5q-4 1 -64 10q-3 5 -2.5 19t2.5 17q9 0 69 -1.5t101 -1.5q63 0 126 3q2 -3 2 -17.5t-2 -18.5q-23 -5 -30 -7q-15 -5 -20 -15t-5 -42q-1 -20 -0.5 -57t1.5 -46q3 -12 22 -24z" />
    <glyph glyph-name="H" unicode="H" horiz-adv-x="755" 
d="M31 572q-3 2 -2.5 17t3.5 17q4 0 51.5 -1.5t95.5 -1.5q45 0 93 1.5t54 1.5q3 -4 3 -18t-4 -16q-34 -4 -46 -9q-14 -5 -19 -16t-5 -34q-1 -24 -1 -164q2 -6 5 -7q9 -2 129 -2q95 0 108 1q6 3 6 7q0 142 -2 179q-2 29 -20 35q-13 5 -55 10q-4 3 -3.5 17t4.5 17
q16 0 62 -1.5t90 -1.5q48 0 91 1.5t51 1.5q3 -3 3 -16.5t-4 -17.5q-39 -7 -47 -10q-14 -5 -19 -14.5t-6 -32.5q-2 -45 -2 -232q0 -145 2 -189q2 -41 21 -50q9 -3 64 -13q2 -3 0 -17.5t-5 -16.5q-7 0 -57 1.5t-91 1.5q-39 0 -93 -1.5t-59 -1.5q-4 3 -4 16.5t4 17.5q20 3 48 9
q25 7 26 50q1 23 1 182q0 7 -5 7q-20 1 -113 1q-124 -1 -128 -3q-2 -2 -2 -6q0 -130 1 -175q0 -24 5 -36t22 -17q9 -3 55 -12q3 -4 1 -17.5t-5 -16.5q-5 0 -26 0.5t-56.5 1.5t-75.5 1q-46 0 -94.5 -1.5t-51.5 -1.5q-3 2 -3.5 16.5t2.5 17.5l46 9q20 4 27 17.5t9 46.5
q1 15 1 195q0 185 -1 215q-2 24 -7 34.5t-20 14.5q-17 4 -52 9z" />
    <glyph glyph-name="I" unicode="I" horiz-adv-x="363" 
d="M28 572q-2 4 -2 17.5t3 16.5q14 0 62 -1.5t87 -1.5q58 0 104.5 1.5t47.5 1.5q2 -3 2.5 -16.5t-2.5 -17.5q-38 -6 -52 -10q-15 -6 -19 -16t-5 -35q-1 -15 -1 -188q0 -213 1 -233q2 -41 30 -48q5 -2 14.5 -3.5t22.5 -4t20 -3.5q2 -4 0 -18t-5 -16q-123 3 -150 3
q-52 0 -99 -1.5t-59 -1.5q-4 3 -4 17t4 17q9 1 46 8q20 5 26.5 14.5t8.5 39.5q2 35 2 231q0 154 -3 197q-2 33 -25 41q-21 6 -55 10z" />
    <glyph glyph-name="J" unicode="J" horiz-adv-x="361" 
d="M32 572q-3 5 -2.5 18t3.5 16q9 0 57 -1.5t104 -1.5q46 0 92 1.5t54 1.5q2 -4 2 -17t-2 -17q-31 -4 -47 -10q-12 -6 -17.5 -15.5t-5.5 -32.5q0 -6 -1 -169t-5 -232q-5 -105 -45 -172q-42 -70 -104 -113t-117 -43q-60 0 -77 27v18q10 51 32 89q83 -57 121 -57q19 0 32 14
q13 17 16 92q6 319 -2 544q-3 42 -30 50q-18 5 -58 10z" />
    <glyph glyph-name="K" unicode="K" horiz-adv-x="674" 
d="M251 302q0 -166 2 -215q1 -37 29 -45q6 -2 54 -11q2 -4 0 -18t-5 -16q-126 3 -151 3q-47 0 -96.5 -1.5t-56.5 -1.5q-2 4 -2 16.5t2 16.5l52 10q18 5 23.5 17.5t6.5 44.5q2 95 1 216q0 163 -1 197q-2 40 -23 46q-14 5 -54 11q-4 3 -3.5 17t3.5 17q2 0 50 -1.5t99 -1.5
q27 0 74.5 1.5t67.5 1.5q2 -4 2 -16.5t-2 -17.5q-31 -5 -44 -9q-25 -7 -26 -49q-2 -102 -2 -212zM393 572q-2 5 -2 18t3 16q16 0 53.5 -1.5t66.5 -1.5q68 1 133 3q3 -3 3 -16.5t-4 -17.5q-34 -5 -49 -9.5t-35 -17t-41 -37.5l-134 -157v-5q33 -56 102.5 -143t115.5 -132
q26 -24 43 -30q23 -8 54 -10q2 -4 0.5 -17t-4.5 -17q-34 -4 -113 -2.5t-99 9.5q-24 10 -55 46q-64 72 -158 215q-4 7 -16 17q0 18 4 18q70 37 170 171q37 50 37 72q0 13 -17 18q-17 7 -58 11z" />
    <glyph glyph-name="L" unicode="L" horiz-adv-x="567" 
d="M27 572q-3 5 -1.5 18.5t4.5 15.5q15 0 59.5 -1.5t90.5 -1.5q37 0 148 3q3 -3 2.5 -16.5t-2.5 -17.5q-37 -6 -48 -9q-16 -5 -20.5 -13.5t-5.5 -29.5q-2 -32 -2 -182q-2 -188 3 -251q1 -24 19 -31q32 -7 127 -5q32 0 56 33q36 46 68 120q4 2 19.5 -3t16.5 -10
q-3 -23 -24 -89.5t-37 -92.5q-5 -14 -59 -14q-41 0 -135 2.5t-132 2.5q-44 0 -92 -1.5t-61 -1.5q-3 5 -3 18t3 16q38 5 58 10q24 8 28 41q4 44 4 232q0 169 -2 208q-2 34 -29 41q-6 2 -53 9z" />
    <glyph glyph-name="M" unicode="M" horiz-adv-x="839" 
d="M24 572q-2 4 0 18.5t4 15.5q35 0 112.5 -1.5t127.5 -1.5q3 -31 19 -64q109 -243 141 -306q3 -3 6 0q22 41 72.5 149t71.5 160q18 44 19 61q63 0 130.5 1.5t90.5 1.5q3 -2 3 -16.5t-3 -17.5q-38 -5 -61 -12q-17 -6 -22 -17.5t-5 -33.5q-1 -51 3 -204t8 -207q2 -23 9 -37
t26 -18q19 -5 57 -12q3 -4 2 -17t-5 -17q-8 0 -60.5 1.5t-109.5 1.5q-29 0 -75 -1.5t-67 -1.5q-3 4 -2.5 17.5t2.5 16.5q47 10 53 12q20 7 21 50q1 40 1 360h-5q-173 -392 -192 -447q-4 -2 -22.5 -2t-22.5 1q-21 71 -178 449q-2 0 -6 -2q-17 -221 -17 -350q0 -27 7.5 -39
t28.5 -19q31 -9 64 -13q3 -2 2 -16t-4 -18q-12 0 -56.5 1.5t-81.5 1.5q-20 0 -60 -1.5t-59 -1.5q-2 4 -2.5 17.5t2.5 16.5q41 7 50 9q22 6 32 19.5t14 46.5q27 232 34 402q2 38 -25 48q-17 6 -72 16z" />
    <glyph glyph-name="N" unicode="N" horiz-adv-x="715" 
d="M17 571q-2 3 -2 18t2 17q18 1 67 -1t80 -2q47 0 75 2q10 -21 37 -55q257 -326 289 -364q1 0 2 0.5t2 0.5q0 264 -5 318q-2 26 -11.5 38.5t-33.5 18.5q-22 5 -60 10q-3 3 -2.5 17.5t2.5 16.5q8 0 53 -1.5t82 -1.5q33 0 72.5 1.5t44.5 1.5q3 -2 3 -17t-3 -17q-26 -4 -39 -8
q-23 -7 -32 -19.5t-11 -43.5q-9 -112 -9 -369q0 -66 2 -138q-13 1 -49 1t-51 -2l-350 462q-5 5 -5 -1q-4 -221 2 -348q2 -31 13 -45t33 -19q9 -2 28.5 -5.5t29.5 -5.5q3 -2 3 -16t-4 -18q-17 0 -60 1.5t-67 1.5q-29 0 -73.5 -1.5t-57.5 -1.5q-3 4 -2.5 18t2.5 16q40 7 58 13
q30 9 34 57q10 87 10 390q0 21 -9.5 40t-27.5 25q-33 13 -62 15z" />
    <glyph glyph-name="O" unicode="O" horiz-adv-x="757" 
d="M378 -18q-155 0 -244 91q-84 90 -84 229q0 144 92 225q94 94 246 94q150 0 234 -89t84 -221q0 -123 -60 -202q-95 -127 -268 -127zM408 27q44 0 76 32q61 58 61 218q0 82 -22 154t-66 111q-42 36 -95 36q-47 0 -76 -23q-75 -55 -75 -221q0 -77 23 -152t72 -117
q46 -38 102 -38z" />
    <glyph glyph-name="P" unicode="P" horiz-adv-x="596" 
d="M302 237q-14 8 -18 30q0 7 4 11q8 -2 28 -2q30 0 50 13q48 31 48 119q-1 70 -34.5 112.5t-91.5 42.5q-17 0 -27 -5q-6 -6 -6 -14q-2 -30 -2 -221q0 -194 2 -231q2 -43 30 -50q16 -6 66 -11q3 -3 1.5 -16.5t-5.5 -17.5q-19 0 -75.5 1.5t-86.5 1.5q-27 0 -79.5 -1.5
t-78.5 -1.5q-2 5 -2 18t2 16q41 6 53 9q16 4 21.5 16.5t6.5 36.5q2 78 2 226q0 159 -2 190q-1 26 -7 38.5t-25 16.5q-26 6 -49 8q-2 5 -1.5 18t2.5 16q12 0 60 -1.5t77 -1.5q150 2 197 2q85 0 131 -34q68 -48 68 -141q0 -110 -87 -162q-58 -35 -127 -35q-23 0 -45 4z" />
    <glyph glyph-name="Q" unicode="Q" horiz-adv-x="757" 
d="M919 -114q-45 -44 -107 -65.5t-117 -21.5q-57 0 -117 33q-34 19 -98 65t-80 57q-33 21 -70 27q-98 18 -154 57q-125 85 -125 262q0 113 54 190q98 131 287 131q101 0 174 -45t106.5 -113.5t33.5 -149.5q0 -136 -73 -217q-45 -50 -128 -86q31 -9 129 -55q111 -52 173 -52
t104 20q3 -5 6 -18t2 -19zM358 578q-74 0 -110.5 -67t-36.5 -178q0 -84 20 -151t68 -112t120 -45q41 0 70.5 35t43 91t13.5 126q0 54 -9.5 104.5t-30.5 96t-59 73t-89 27.5z" />
    <glyph glyph-name="R" unicode="R" horiz-adv-x="640" 
d="M29 572q-3 4 -2 18.5t5 15.5q10 0 64.5 -1.5t75.5 -1.5q40 0 101.5 1.5t88.5 1.5q90 0 140 -42t50 -111q0 -105 -117 -151q-3 -3 -1 -8q17 -33 71.5 -110t87.5 -109q26 -26 40 -32.5t52 -10.5q2 -2 -1 -18t-6 -18q-48 -4 -110.5 0.5t-91.5 17.5q-33 16 -50 42
q-14 17 -32 43.5t-30 47t-31.5 53.5t-25.5 43q-11 17 -29 18h-24q-4 0 -4 -6q0 -81 2 -167q1 -22 7 -32.5t21 -14.5t53 -10q4 -1 3 -17t-5 -17q-4 0 -53 1.5t-96 1.5q-49 0 -97.5 -1.5t-51.5 -1.5q-3 3 -4 17t3 17q22 2 46 8q16 4 22 15t7 34q3 47 3 228q0 158 -2 202
q-1 39 -28 45q-25 6 -51 9zM286 563q-18 0 -27 -4q-7 -5 -7 -15q-2 -22 -2 -228q0 -8 6 -8q80 -4 108 12q45 22 45 102q0 63 -33 102t-90 39z" />
    <glyph glyph-name="S" unicode="S" horiz-adv-x="499" 
d="M71 186q30 -94 85 -136q37 -27 91 -27q37 0 60.5 21t23.5 57q0 37 -22.5 65t-89.5 69q-41 26 -62 41t-47 40.5t-37 55.5t-11 68q0 85 61 133t152 48q45 0 102 -8t65 -9q-12 -63 -17 -148q-4 -4 -17.5 -4t-17.5 2q-12 83 -46 107q-28 23 -75 23q-39 0 -62.5 -24t-23.5 -60
q0 -55 62 -97l111 -68q57 -35 82 -72t25 -90q0 -83 -64 -137t-176 -54q-93 0 -155 32q-8 11 -19.5 72t-12.5 89q2 4 16 8.5t19 2.5z" />
    <glyph glyph-name="T" unicode="T" horiz-adv-x="642" 
d="M482 31q3 -3 2 -17t-4 -17q-16 0 -70 1.5t-92 1.5q-53 0 -110 -1.5t-66 -1.5q-4 4 -4 17.5t4 16.5q52 6 64 10q20 5 27.5 17t9.5 44q3 76 3 441q0 8 -5 8q-14 1 -46.5 1t-49.5 -1q-31 -1 -49 -36q-21 -41 -36 -85q-3 -2 -19.5 1.5t-18.5 8.5q15 75 21 170q0 2 3.5 4.5
t5.5 1.5q38 -13 92 -13h354q74 0 113 12q6 0 6 -8q-16 -66 -24 -174q-3 -3 -19 -3.5t-18 1.5q-8 54 -20 89q-11 28 -39 31q-45 5 -105 1q-4 -2 -4 -8q0 -413 2 -455q2 -37 25 -46q12 -4 67 -12z" />
    <glyph glyph-name="U" unicode="U" horiz-adv-x="708" 
d="M14 572q-2 4 -1.5 17t2.5 17q15 0 68 -1.5t86 -1.5q36 0 88.5 1.5t69.5 1.5q3 -4 3 -17t-3 -17q-11 -1 -28 -4.5t-18 -3.5q-32 -8 -34 -55q-1 -24 -1 -214q0 -79 8 -127q20 -115 158 -115q28 0 51 6t45.5 22t36.5 49t18 81q4 53 4.5 151t-2.5 136q-2 30 -10.5 44.5
t-32.5 19.5q-26 7 -59 10q-2 4 -2 16.5t3 17.5q17 0 58.5 -1.5t65.5 -1.5q45 0 80.5 1.5t40.5 1.5q4 -4 4 -17t-4 -17q-36 -7 -42 -9q-19 -5 -26.5 -19t-9.5 -51q-2 -25 -8 -239q-6 -147 -73.5 -209.5t-191.5 -62.5q-230 0 -251 185q-3 26 -5 71.5t-2 81t-0.5 102t-0.5 90.5
q-2 41 -33 50q-20 7 -52 10z" />
    <glyph glyph-name="V" unicode="V" horiz-adv-x="639" 
d="M-22 571q-2 5 -0.5 19t4.5 16q14 0 68.5 -1.5t83.5 -1.5q38 0 93 1.5t60 1.5q4 -2 4 -16.5t-2 -17.5q-41 -8 -53 -16q-10 -8 -4 -27q14 -41 68.5 -177.5t73.5 -180.5q3 -3 6 0q21 45 66.5 163.5t58.5 164.5q17 50 -19 61q-31 8 -63 12q-2 5 -0.5 19t4.5 16q2 0 41.5 -2
t82.5 -2q38 0 75.5 1.5t43.5 1.5q2 -2 3 -15.5t-2 -18.5q-40 -7 -52 -14q-18 -10 -30 -27t-28 -54l-142 -341q-32 -79 -52 -144q-41 4 -87 0q-23 71 -51 140q-104 267 -129 325q-25 57 -40 77.5t-39 27.5q-16 5 -43 9z" />
    <glyph glyph-name="W" unicode="W" horiz-adv-x="885" 
d="M-30 572q-2 3 -1 18t4 16q17 0 62.5 -1.5t91.5 -1.5q47 0 91 1.5t59 1.5q3 -2 3 -16t-3 -18q-30 -6 -49 -13q-15 -8 -10 -26q42 -150 102 -326q3 -5 6 1q28 70 66.5 184.5t55.5 179.5q30 -6 71 0q17 -54 71.5 -194.5t76.5 -190.5q4 -2 6 1q70 209 91 312q4 24 -0.5 38
t-24.5 20q-14 6 -65 14q-3 3 -2.5 17.5t3.5 16.5q7 0 49.5 -1.5t76.5 -1.5q39 0 76.5 1.5t42.5 1.5q2 -2 2 -16t-2 -18q-38 -10 -42 -11q-32 -12 -50 -61q-48 -128 -172 -510q-53 3 -73 -2q-21 62 -72 198t-71 180q-2 4 -5 -1q-98 -256 -135 -375q-43 6 -73 0
q-21 91 -73.5 257t-84.5 251q-20 51 -45 61q-21 8 -54 13z" />
    <glyph glyph-name="X" unicode="X" horiz-adv-x="621" 
d="M641 31q2 -3 1.5 -16.5t-4.5 -17.5q-18 0 -81 1.5t-96 1.5q-40 0 -71 -1t-48 -1.5t-22 -0.5q-3 2 -4 16.5t1 17.5q43 9 55 14q3 1 4 7.5t-1 8.5q-36 73 -97 171q-1 2 -3.5 2t-3.5 -2q-101 -152 -103 -162q-5 -24 23 -30q37 -7 47 -9q1 -3 -1 -17t-3 -17q-16 0 -61 2
t-68 1q-23 0 -117 -4q-2 4 -2 18.5t2 16.5q38 7 57 13q34 10 73 57q60 72 131 175q1 2 1 5t-1 4q-62 111 -115 196q-28 46 -42 61t-38 21q-24 7 -46 9q-4 3 -3 18t4 17q16 0 62 -2t76 -2q83 0 159 4q2 -3 2 -18t-2 -17q-15 -2 -36 -8q-16 -7 -8 -22q21 -43 85 -153q3 -3 6 0
q91 132 91 154q0 14 -16 18q-15 5 -49 10q-2 5 0 18.5t4 15.5q15 0 51 -1t59 -1q36 0 71.5 1.5t46.5 1.5q1 -2 1 -16t-1 -18q-32 -5 -53 -12q-22 -7 -38 -21.5t-42 -47.5q-32 -42 -100 -140q-2 -5 -1 -7q71 -123 109 -183q45 -72 61.5 -91.5t41.5 -27.5q33 -9 52 -11z" />
    <glyph glyph-name="Y" unicode="Y" horiz-adv-x="578" 
d="M-23 573q-3 5 -2 17.5t4 15.5q15 0 62 -1.5t76 -1.5q99 0 153 3q3 -3 3.5 -17t-2.5 -17q-5 -1 -31 -7q-17 -5 -7 -29q13 -29 53 -108.5t52 -99.5q4 -2 7 0q27 47 60 112t41 90q6 26 -21 33q-19 5 -52 9q-2 6 -0.5 19t4.5 15q9 0 50.5 -1.5t70.5 -1.5q28 0 63.5 1.5
t48.5 1.5q3 -2 3 -16.5t-3 -17.5q-40 -7 -45 -9q-22 -8 -37 -20.5t-36 -45.5q-72 -120 -118 -212q-11 -23 -11 -48q0 -36 2 -138q1 -18 2.5 -27.5t9 -18.5t21.5 -12q14 -4 56 -11q2 -2 0.5 -16.5t-3.5 -17.5q-14 0 -74 2t-93 2q-45 0 -90.5 -2t-62.5 -2q-3 3 -2.5 17.5
t2.5 16.5q45 6 61 11q18 4 23.5 17.5t5.5 38.5q2 47 2 130q0 20 -13 51q-43 90 -113 212q-25 42 -39.5 56t-35.5 20q-28 6 -45 7z" />
    <glyph glyph-name="Z" unicode="Z" horiz-adv-x="598" 
d="M585 178q-4 -27 -21 -86t-29 -84q-9 -14 -64 -14l-336 6q-10 0 -30 -0.5t-36.5 -1t-26.5 -1.5q-2 2 -3.5 11.5t-0.5 12.5q47 61 173.5 266t155.5 263q2 6 -3 6q-35 1 -103.5 -0.5t-96.5 -4.5q-32 -6 -51 -36q-11 -18 -43 -93q-3 -1 -19.5 4t-18.5 7q25 110 32 180
q14 5 21 2q24 -12 85 -12h198q56 0 173 3q1 -1 2.5 -9.5t0.5 -12.5q-198 -345 -310 -524q-1 -1 -0.5 -4t2.5 -4q30 -7 185 -7q26 0 51 22q30 28 76 124q4 2 19 -3t18 -10z" />
    <glyph glyph-name="bracketleft" unicode="[" horiz-adv-x="387" 
d="M116 741h211q2 -53 -9 -54q-64 -2 -141 -2q-6 0 -6 -7q-5 -50 -5 -391q0 -314 5 -391q3 -17 10 -20q17 -5 154 -5q2 -6 -1 -29.5t-10 -23.5q-116 -3 -166 0q-36 3 -47 9v908q0 6 5 6z" />
    <glyph glyph-name="backslash" unicode="\" horiz-adv-x="443" 
d="M86 689q2 0 4 -0.5t3 -0.5q242 -658 306 -796q0 -3 -8 -6q-12 1 -34.5 9.5t-25.5 14.5q-18 33 -76 182.5t-125.5 328.5t-89.5 233q3 5 21 18.5t25 16.5z" />
    <glyph glyph-name="bracketright" unicode="]" horiz-adv-x="387" 
d="M271 -183q-37 0 -105 -1t-106 -1q-2 54 9 54q111 0 142 3q6 0 6 7q4 40 4 390q0 356 -3 393q-3 19 -10 20q-32 3 -156 3q-2 6 1 29.5t10 23.5q86 2 198 2q3 0 5 -0.5t3.5 -1.5t2.5 -2l2 -2l2 -2v-909q0 -6 -5 -6z" />
    <glyph glyph-name="asciicircum" unicode="^" horiz-adv-x="457" 
d="M110 265q-10 -14 -58 -14q-3 0 -7 2.5t-4 4.5q15 20 82 158t80 175q1 1 22 6t24 5q26 -60 88 -183.5t80 -148.5q0 -5 -4 -6q-7 -4 -34 -11t-29 -6q-6 7 -25 42t-37 71.5t-38.5 79t-23.5 48.5l-6 1l-1 -1q-86 -196 -109 -223z" />
    <glyph glyph-name="underscore" unicode="_" horiz-adv-x="500" 
d="M557 -182v-51h-569v51h569z" />
    <glyph glyph-name="grave" unicode="`" horiz-adv-x="400" 
d="M188 608q4 -9 23.5 -70t25.5 -85q-2 -3 -14.5 -9.5t-16.5 -5.5q-16 15 -61.5 70t-60.5 77q-2 9 5 14q9 4 50 7.5t49 1.5z" />
    <glyph glyph-name="a" unicode="a" horiz-adv-x="442" 
d="M250 258q0 32 -15 52q-23 31 -68 31q-37 0 -49 -14q-7 -7 -33 -59q-4 -3 -20.5 5t-15.5 12q0 7 8 34t13 31q37 27 84.5 45.5t72.5 18.5q77 0 119 -61q25 -37 25 -101q0 -24 -1 -78.5t-1 -74.5q0 -38 27 -38q16 0 33 5q2 -2 -0.5 -19.5t-4.5 -20.5q-19 -17 -50.5 -28
t-58.5 -11q-51 0 -61 31q-3 8 -5 17q-1 2 -4 1q-33 -22 -65 -35t-46 -13q-34 0 -61 24q-39 36 -39 99q0 10 5.5 31t11.5 29q16 10 95.5 33.5t94.5 29.5q6 1 8 11q1 6 1 13zM249 195q0 5 -3 5l-28.5 -9.5t-36.5 -13t-19 -9.5q-8 -8 -8 -33q0 -35 20 -54t45 -19q16 0 22 6
q6 4 6 18q2 31 2 109z" />
    <glyph glyph-name="b" unicode="b" horiz-adv-x="520" 
d="M325 414q67 0 111 -49q47 -51 47 -132q0 -118 -83 -181q-29 -23 -83 -43.5t-86 -20.5q-49 0 -98 13q-34 9 -63 -1q-2 -1 -6 3t-4 6q6 52 5 255q-2 280 -4 298q-3 21 -23 27l-39 6q-2 3 -1.5 16.5t3.5 16.5q42 1 104 12.5t95 23.5q2 -1 4.5 -8.5t2.5 -10.5
q-11 -20 -11 -125v-73.5t-1 -73.5q1 -4 5 -2q88 43 125 43zM236 343q-20 0 -34 -7q-6 -2 -6 -14q-3 -148 2 -215q0 -30 16 -42q28 -26 64 -26q26 0 45 26q28 36 28 113q0 81 -31 123q-29 42 -84 42z" />
    <glyph glyph-name="c" unicode="c" horiz-adv-x="429" 
d="M406 75q-35 -45 -82.5 -66t-93.5 -21q-97 0 -151 69q-43 53 -43 140q0 50 27 99t74 75q27 17 70.5 30t78.5 13q50 0 86 -13q29 -15 35 -29q4 -9 0 -20q-6 -15 -22 -35t-25 -25q-2 -1 -8 -0.5t-7 1.5q-2 2 -14 16t-20 21t-21 18t-26.5 16t-27.5 5q-34 0 -54.5 -33
t-20.5 -90q0 -68 31 -114q38 -53 108 -53q59 0 107 40q5 -2 6 -7q2 -6 -0.5 -19t-6.5 -18z" />
    <glyph glyph-name="d" unicode="d" horiz-adv-x="529" 
d="M520 62q1 -3 -2 -17.5t-5 -16.5q-27 -14 -91.5 -29t-83.5 -15q-5 0 -8 9q-1 4 -1 12t-0.5 19.5t-0.5 17.5q0 4 -5 2q-79 -54 -133 -54q-65 0 -108 54q-46 56 -46 143q0 51 21.5 95.5t56.5 70.5q30 24 85 42.5t99 18.5h27q5 0 5 4q0 107 -3 135q-2 31 -21 38q-23 8 -54 11
q-2 4 -1 17.5t5 14.5q43 0 111.5 10t97.5 20q7 -5 7 -18q-8 -11 -9.5 -28.5t-2.5 -79.5q-1 -61 -1 -270q0 -122 1 -162t17 -42q11 -2 43 -2zM245 371q-25 0 -46 -21q-29 -32 -29 -106q0 -80 32.5 -127.5t84.5 -47.5q20 0 34 9q7 5 8 18q3 107 0 201q-1 36 -27 55t-57 19z
" />
    <glyph glyph-name="e" unicode="e" horiz-adv-x="448" 
d="M414 119q5 -5 5 -7q1 -9 -5 -33q-33 -41 -84 -66t-100 -25q-84 0 -134 48q-60 57 -60 164q0 59 26 106t68 74q57 34 120 34q52 0 88.5 -26t51 -56t19.5 -63q1 -9 15 -14q1 -2 -1.5 -14t-4.5 -13q-38 -13 -248 -22q-4 -2 -4 -10q4 -48 38 -82q35 -34 95 -34q64 0 115 39z
M220 374q-25 0 -40.5 -32.5t-15.5 -83.5q0 -6 6 -6q80 -3 107 3q6 2 6 9q-2 50 -18.5 80t-44.5 30z" />
    <glyph glyph-name="f" unicode="f" horiz-adv-x="299" 
d="M20 31q34 7 38 9q17 6 17 34q1 80 1 259q0 7 -5 7l-49 3q0 5 3.5 18.5t5.5 16.5q23 6 42 18q4 3 4 7q4 145 119 223q57 38 110 38q62 0 86 -33q1 -3 1.5 -9.5t-0.5 -9.5q-5 -13 -23 -39.5t-27 -31.5q-2 -1 -8 -1.5t-8 0.5q-55 64 -88 64q-14 0 -22 -11q-15 -20 -15 -114
q0 -42 2 -72q0 -7 7 -7l96 3q-7 -37 -10 -63q-15 0 -44.5 0.5t-43.5 0.5q-5 0 -5 -6q2 -196 4 -251q1 -36 25 -43q17 -5 51 -10q2 -3 0 -17.5t-5 -16.5q-6 0 -48.5 1.5t-95.5 1.5q-28 0 -67.5 -1.5t-47.5 -1.5q-3 4 -3 17.5t3 16.5z" />
    <glyph glyph-name="g" unicode="g" horiz-adv-x="473" 
d="M228 414q48 0 110 -20q35 -10 62 -10q26 0 37.5 3.5t23.5 16.5q2 1 8.5 -3t7.5 -6q0 -9 -9 -32.5t-17 -31.5q-12 -12 -36 -12q-13 0 -20 1q-2 0 -2 -4q6 -13 6 -40q0 -79 -58 -123q-43 -33 -118 -37q-4 -1 -37 -1q-3 1 -8.5 -5t-5.5 -10q0 -22 34 -27q143 -13 173 -21
q32 -9 56.5 -36t24.5 -70q0 -57 -37 -102t-98 -74q-55 -26 -123 -26q-73 0 -121 28q-62 38 -62 92q0 26 6 39q7 7 90 57q2 2 0 4q-64 28 -67 84q3 13 4 16q70 38 86 50q1 1 1 3t-1 3q-103 33 -103 139q0 76 62 117q54 38 131 38zM212 378q-23 0 -38 -23.5t-15 -65.5
q0 -70 19 -103.5t50 -33.5q19 0 32 16q20 22 20 81q0 57 -16.5 93t-51.5 36zM252 -201q56 0 83.5 21.5t27.5 52.5q0 36 -36 54q-45 24 -154 24q-19 0 -28 -7q-28 -20 -28 -50q0 -32 26 -58q37 -37 109 -37z" />
    <glyph glyph-name="h" unicode="h" horiz-adv-x="531" 
d="M8 596q-4 3 -3.5 16.5t3.5 15.5q111 6 196 36q3 -1 6 -7.5t2 -11.5q-13 -20 -13 -95v-185q0 -7 4 -3q76 52 128 52q62 0 96 -42.5t34 -122.5q0 -166 1 -185q0 -14 7 -17q17 -11 48 -16q3 -3 1 -17t-6 -17q-1 0 -39.5 1.5t-78.5 1.5q-68 0 -107 -3q-4 4 -4 17.5t4 16.5
q16 3 26 7q17 6 18 42q5 164 -4 202q-5 26 -26 41.5t-49 15.5q-26 0 -46 -10q-6 -2 -6 -12q0 -215 1 -230q0 -2 0.5 -8t0.5 -8t0.5 -6.5t1 -6.5t1.5 -5t2.5 -4.5l3.5 -3.5t4.5 -3.5t5.5 -2.5q14 -5 31 -8q4 -4 3 -16.5t-4 -17.5q-11 0 -48 1.5t-72 1.5q-36 0 -72 -1.5
t-42 -1.5q-4 5 -4 18t4 16q17 3 34 9q18 5 19 55q2 39 2 167q0 260 -4 299q-3 20 -18 26q-7 3 -42 9z" />
    <glyph glyph-name="i" unicode="i" horiz-adv-x="275" 
d="M262 31q3 -3 1 -16.5t-6 -17.5q-4 0 -43.5 1.5t-76.5 1.5q-32 0 -70 -1.5t-47 -1.5q-2 4 -2.5 17.5t2.5 16.5q27 5 37 9q16 4 17 39q1 22 1 132q0 74 -1 91q0 18 -7 25q-10 11 -40 23q-2 4 -1 16t3 15q23 0 83 10.5t94 24.5q0 -19 -0.5 -79.5t-0.5 -90.5q0 -118 1 -164
q0 -34 18 -42zM202 541q0 -35 -28 -59q-7 -6 -35.5 -8.5t-38.5 1.5q-25 10 -33 45q-3 8 -2 25t7 24q27 23 75 23q31 0 47 -13q8 -13 8 -38z" />
    <glyph glyph-name="j" unicode="j" horiz-adv-x="277" 
d="M206 544q0 -16 -8 -33.5t-20 -25.5q-7 -5 -36 -9.5t-37 -0.5q-29 15 -35 52q-3 8 -1.5 22.5t7.5 20.5q26 26 77 26q29 0 44 -15q9 -12 9 -37zM212 414v-155t-1 -155q0 -87 -11 -133q-19 -83 -70 -141t-91 -75q-24 1 -35 17q-4 9 0 13q45 22 60 60.5t15 127.5
q0 276 -3 326q-2 29 -18 37q-10 7 -43 15q-3 6 -2.5 18t2.5 16q125 6 197 29z" />
    <glyph glyph-name="k" unicode="k" horiz-adv-x="501" 
d="M263 366q-2 5 -0.5 18.5t4.5 15.5q114 -2 205 7q3 -2 3.5 -16t-3.5 -19q-55 -10 -81 -35q-66 -65 -82 -85v-5q14 -27 69 -100t80 -95q13 -12 23.5 -15.5t39.5 -5.5q3 -3 1 -17t-6 -17q-29 -5 -131 -5q-39 1 -61 25q-25 26 -98 141q-18 27 -27 30q1 -53 1 -106
q1 -24 6.5 -32t20.5 -12q20 -5 32 -7q2 -4 0 -17.5t-6 -16.5q-8 0 -46 1.5t-74 1.5q-31 0 -68.5 -1.5t-48.5 -1.5q-4 4 -4 17.5t4 16.5q21 3 34 7q16 7 19 40q2 26 2 157q0 307 -2 326q-2 25 -18 30q-12 5 -38 10q-2 4 -2 16t2 15q45 1 105.5 11.5t87.5 20.5q2 -1 5 -8.5
t2 -9.5q-11 -18 -12 -106q-2 -118 -2 -323q20 3 44 22q28 23 55.5 56t27.5 45q0 13 -17 18q-6 1 -17 3t-19.5 3.5t-9.5 1.5z" />
    <glyph glyph-name="l" unicode="l" horiz-adv-x="271" 
d="M17 -3q-3 4 -3.5 16.5t2.5 17.5q22 5 37 10q15 6 17 50q1 36 1 233q0 189 -3 238q-2 19 -14 24q-10 5 -43 9q-3 3 -2.5 14.5t3.5 16.5q45 4 106.5 16t85.5 22q3 -1 6 -6t2 -9q-9 -18 -11 -88q-1 -25 -1 -110v-132q0 -211 2 -240q2 -21 5.5 -28t17.5 -11q12 -4 35 -9
q2 -4 0 -16.5t-5 -17.5q-4 0 -21 0.5t-45.5 1.5t-61.5 1q-35 0 -71 -1.5t-39 -1.5z" />
    <glyph glyph-name="m" unicode="m" horiz-adv-x="792" 
d="M21 31q17 3 33 9q18 6 20 44q2 29 2 107.5t-2 105.5q-2 15 -6 20q-7 11 -43 27q-2 5 0 17t5 14q45 6 97.5 19t75.5 24q5 -2 5 -7q-3 -18 -3 -58q0 -2 2.5 -2.5t4.5 0.5q81 63 133 63q69 0 103 -66q1 -4 6 0q86 66 141 66q58 0 92.5 -43.5t34.5 -118.5q0 -145 1 -186
q0 -10 4 -14q8 -9 54 -21q2 -4 0.5 -17t-4.5 -17q-9 0 -49.5 1.5t-67.5 1.5q-97 -2 -113 -3q-2 4 -2.5 16.5t2.5 17.5q17 4 25 7q11 4 14 12t4 31q4 139 -3 189q-4 24 -21 42t-49 18q-30 0 -55 -19q-1 -1 -1 -6q5 -25 5 -73v-161q0 -19 11 -26q14 -9 41 -14q2 -3 1 -17
t-5 -17q-120 3 -125 3q-21 0 -102 -3q-2 5 -2.5 17.5t2.5 16.5q7 2 18 4t15 4q12 4 14 32q5 164 -3 205q-5 24 -21 41t-47 17q-27 0 -48 -16q-9 -6 -9 -19q0 -37 0.5 -112.5t0.5 -111.5q0 -18 4.5 -25.5t18.5 -12.5q3 -1 12.5 -2.5t14.5 -3.5q2 -3 1 -16.5t-4 -17.5
q-120 3 -121 3q-21 0 -111 -3q-3 5 -3.5 18.5t2.5 15.5z" />
    <glyph glyph-name="n" unicode="n" horiz-adv-x="536" 
d="M21 31q9 1 31 7q18 4 21 39q2 60 2 153q0 68 -2 78q-5 22 -47 37q0 22 5 30q103 12 168 44q4 -4 4 -8v-55q0 -2 2 -3t3 0q77 61 128 61q68 0 103 -54q27 -40 27 -118v-177q0 -11 8 -17q18 -13 48 -17q2 -4 0.5 -17t-5.5 -17q-1 0 -37.5 1.5t-77.5 1.5q-9 0 -111 -3
q-2 5 -2.5 18t2.5 16l26 7q15 5 17 28q2 21 2 102.5t-5 108.5q-7 31 -30 46q-16 11 -43 11q-24 0 -46 -13q-8 -5 -8 -16q0 -31 0.5 -117.5t1.5 -114.5q1 -30 22 -36q7 -2 28 -6q2 -3 1 -16.5t-3 -17.5q-117 3 -119 3q-47 0 -113 -3q-2 5 -2.5 17.5t1.5 16.5z" />
    <glyph glyph-name="o" unicode="o" horiz-adv-x="520" 
d="M267 414q102 0 159.5 -59t57.5 -150q0 -122 -91 -179q-61 -38 -137 -38q-109 0 -164.5 60t-55.5 155q0 113 90 171q62 40 141 40zM244 374q-13 0 -27 -9q-39 -29 -39 -132q0 -100 27 -153t69 -53q20 0 31 11q35 31 35 139q0 91 -25 144t-71 53z" />
    <glyph glyph-name="p" unicode="p" horiz-adv-x="525" 
d="M10 336q-2 4 -1 16.5t3 16.5q35 5 91 23t89 33q1 1 5 -3t4 -6q0 -3 -0.5 -23.5t-0.5 -30.5q0 -2 2 -3t3 0q86 55 131 55q63 0 104 -46q48 -54 48 -135q0 -112 -81 -180q-36 -31 -88 -48.5t-95 -17.5q-17 0 -21 1q-3 0 -3 -5q-2 -64 2 -124q1 -19 7 -28t22 -13q8 -2 57 -9
q2 -5 0 -17.5t-5 -16.5h-26q-137 0 -254 -13q-3 5 -4.5 18t1.5 18q34 6 49 12q18 6 20 47q2 35 2 226q0 162 -3 208q-2 25 -17 33q-14 6 -41 12zM251 334q-26 0 -43 -11q-9 -4 -10 -16q-1 -20 0 -92.5t2 -102.5q2 -36 26 -56q23 -19 56 -19q28 0 47 23q29 37 29 114
q0 84 -32 123q-29 37 -75 37z" />
    <glyph glyph-name="q" unicode="q" horiz-adv-x="527" 
d="M535 -225h-85q-54 -1 -121 -6.5t-76 -5.5q-2 4 -2.5 17t1.5 17q32 6 51 12q13 5 17 15t6 34q3 49 3 165q0 1 -1.5 3t-2.5 1q-25 -16 -63.5 -28t-59.5 -12q-69 0 -117.5 55.5t-48.5 147.5q0 51 23.5 94.5t62.5 71.5q36 26 91 42t105 16q78 0 153 -22q-6 -25 -9 -56
q-3 -34 -3 -150q-2 -191 3 -309q1 -32 7 -43t21 -16q15 -3 49 -7q2 -3 0.5 -18t-4.5 -18zM247 366q-75 0 -75 -130q0 -89 38 -133t87 -44q19 0 28 5q4 2 4 8q0 221 -5 252q0 15 -12 23q-26 19 -65 19z" />
    <glyph glyph-name="r" unicode="r" horiz-adv-x="376" 
d="M319 414q43 0 57 -30q3 -6 0 -22q-2 -13 -17 -45t-27 -46q-2 -2 -7 -3t-7 0q-38 42 -79 42q-19 0 -29 -10q-6 -4 -6 -15q-1 -39 -0.5 -114.5t1.5 -85.5q2 -24 6.5 -32t20.5 -12q14 -5 51 -10q2 -3 0 -17t-5 -17q-4 0 -52 1.5t-92 1.5q-27 0 -66 -1.5t-50 -1.5q-2 5 -2 18
t2 16q26 4 39 9q15 5 16 32q4 38 2 153q0 65 -2 81q-1 7 -3.5 12.5t-14 13.5t-32.5 15q-1 5 1 16t4 12q33 3 87 16t81 28q5 0 8 -6q-4 -48 -4 -76q1 -4 5 -2q31 34 58 56q27 23 56 23z" />
    <glyph glyph-name="s" unicode="s" horiz-adv-x="382" 
d="M331 402q-6 -28 -12 -120q-4 -2 -17 -2.5t-16 0.5q-13 66 -44 86q-19 11 -43 11q-21 0 -35 -12t-14 -30q0 -22 17.5 -38t79.5 -45q58 -26 81 -54t23 -70q0 -63 -52.5 -101t-126.5 -38q-64 0 -126 20q-10 50 -14 125q2 2 16 6.5t18 3.5q23 -77 65 -102q24 -15 54 -15
q24 0 38 11.5t14 29.5q0 20 -14 34t-49 31q-76 36 -104 68.5t-28 79.5q0 57 44 94.5t125 37.5q38 0 71 -5q37 -6 49 -6z" />
    <glyph glyph-name="t" unicode="t" horiz-adv-x="320" 
d="M301 339q-30 1 -99 1q-4 0 -4 -6q0 -18 -0.5 -74.5t-0.5 -81.5q0 -55 4 -75q2 -17 15.5 -28t35.5 -11q31 0 54 14q2 -3 1.5 -16t-2.5 -19q-41 -54 -120 -54q-75 0 -103 48q-10 19 -12.5 40t-2.5 71q0 26 0.5 94t0.5 88q0 8 -6 10q-7 1 -24 2t-24 2q0 21 9 41q31 7 40 11
q3 0 5 8v85q23 7 61 25t50 28q15 4 23 2q-4 -31 -4 -136q0 -8 4 -8q1 0 109 4q-9 -52 -10 -65z" />
    <glyph glyph-name="u" unicode="u" horiz-adv-x="521" 
d="M13 357q-2 6 -0.5 18.5t4.5 16.5q145 6 186 16q-6 -45 -6 -181q0 -96 5 -113q11 -41 62 -41q28 0 48 16q7 7 7 15q4 34 0 212q0 26 -17 31q-17 6 -52 11q-5 24 3 34q107 0 200 15q-2 -18 -2 -104v-201q2 -31 18 -34q13 -1 41 -1q0 -27 -5 -35q-28 -13 -92.5 -29
t-81.5 -16q-3 2 -6 7q-5 18 -5 55q0 2 -2 2.5t-3 -0.5q-74 -61 -133 -61q-57 0 -85 34t-29 91v98.5t-1 98.5q-1 12 -2 18t-5 11.5t-12 7.5q-26 7 -35 8z" />
    <glyph glyph-name="v" unicode="v" horiz-adv-x="456" 
d="M-7 369q-2 5 0 18.5t5 15.5q105 -3 123 -3q39 0 111 3q3 -4 3.5 -17t-2.5 -17q-34 -8 -35 -9q-7 -3 -5 -12q18 -55 77 -203q1 -1 2 -0.5t1 1.5q51 119 68 176q10 30 -10 37q-22 7 -44 10q-3 5 -1.5 18.5t4.5 15.5q5 0 37.5 -1.5t53.5 -1.5t90 3q3 -3 2.5 -16t-3.5 -18
q-24 -4 -35 -9q-21 -8 -40 -49q-42 -87 -96 -220q-24 -63 -34 -93q-13 2 -37 1.5t-37 -2.5q-9 29 -31 86q-19 53 -75 186q-24 56 -34 71t-27 21q-6 2 -31 8z" />
    <glyph glyph-name="w" unicode="w" horiz-adv-x="658" 
d="M-16 369q-2 5 -1 18t3 16q10 0 52.5 -1.5t74.5 -1.5q30 0 118 4q4 -3 4.5 -17t-1.5 -18q-32 -8 -37 -10q-10 -7 -6 -18q15 -75 54 -188q1 -1 4 0q18 42 44 114.5t37 112.5q10 -2 35 -2t33 2q5 -19 23 -70q26 -66 67 -164q4 0 4 1q38 95 56 178q4 23 -16 32q-14 6 -53 12
q-2 4 -0.5 18t4.5 16q1 0 36 -1.5t64 -1.5q27 0 96 3q2 -3 2.5 -17t-2.5 -17q-26 -5 -39 -11q-24 -9 -39 -46q-52 -123 -116 -315q-33 4 -73 -1q-14 43 -45 121t-42 99q-3 3 -4 0q-72 -175 -88 -220q-11 2 -37 2t-36 -2q-54 192 -91 292q-10 27 -14 36.5t-11 20t-17 14.5
q-7 4 -43 10z" />
    <glyph glyph-name="x" unicode="x" horiz-adv-x="435" 
d="M-17 31q41 7 55.5 14.5t39.5 35.5q37 41 79 98q3 3 0 8q-38 70 -76 127q-19 30 -32.5 39t-54.5 15q-2 4 -1.5 18.5t4.5 16.5q2 0 21.5 -0.5t48.5 -1.5t54 -1q32 0 73.5 1.5t42.5 1.5q2 -3 2.5 -18t-1.5 -17q-21 -4 -25 -7q-10 -3 -4 -16q23 -49 44 -77q1 -3 4 0
q41 51 47 75q4 12 -6 17q-15 7 -33 8q-3 30 3 35q6 0 35 -1.5t44 -1.5q45 0 87 3q3 -3 4 -16t-1 -19q-36 -7 -49 -13t-29 -23q-12 -13 -78 -100q-3 -2 -1 -7l64 -108q38 -57 52 -68.5t58 -17.5q1 -4 -1 -17.5t-5 -16.5q-11 0 -55.5 1.5t-68.5 1.5q-87 -1 -116 -3
q-2 4 -3.5 17t0.5 17q27 6 30 13q3 5 0 13q-30 53 -50 84q-1 4 -5 0q-52 -76 -52 -84q-2 -12 11 -18q5 -1 36 -8q3 -19 -4 -34q-9 0 -40.5 1.5t-47.5 1.5q-56 0 -98 -3q-2 5 -3 18t1 16z" />
    <glyph glyph-name="y" unicode="y" horiz-adv-x="454" 
d="M-13 369q0 24 6 34l45 -1q45 -2 84 -2q29 0 116 3q2 -4 2.5 -16.5t-0.5 -17.5q-24 -6 -30 -9q-10 -5 -7 -19q21 -66 75 -192h4q52 114 62 176q4 26 -17 33q-15 7 -45 11q0 27 5 34q9 0 39.5 -1.5t51.5 -1.5q7 0 97 3q5 -16 1 -34q-22 -4 -37 -11q-25 -11 -43 -59
q-76 -202 -220 -465l-35 -64l-12 -4q-14 1 -38 10.5t-31 20.5q-4 13 1 21q105 120 140 189q-4 6 -14 26l-98 232q-22 54 -34 71t-32 24q-3 1 -36 9z" />
    <glyph glyph-name="z" unicode="z" horiz-adv-x="418" 
d="M371 402q2 -1 3.5 -8.5t0.5 -10.5q-12 -30 -76 -149t-102 -184q-2 -2 1 -5q30 -6 89 -6q40 0 84 98q6 6 35 6l2 -1q2 -2 3 -2q-11 -58 -43 -130q-8 -15 -34 -15q-31 0 -154.5 3t-147.5 2q-6 15 -4 20q13 23 47.5 79t57 93t48.5 84t40 77q3 5 -3 5q-54 0 -69 -1
q-36 -3 -51 -18.5t-41 -75.5q-5 -2 -17.5 2t-16.5 8q10 45 26 138q30 -11 81 -11h150q47 0 91 2z" />
    <glyph glyph-name="braceleft" unicode="{" horiz-adv-x="436" 
d="M57 294q75 3 92.5 39t7.5 114q-7 63 -7 91q0 98 59 149t162 59q2 -1 4 -15.5t0 -18.5q-75 -15 -104 -47.5t-29 -91.5q0 -23 6.5 -79t6.5 -82q0 -104 -116 -133v-5q124 -13 124 -132q0 -32 -6 -87.5t-6 -78.5q0 -63 36 -90t96 -34q2 -3 -1 -18.5t-6 -17.5
q-86 -3 -151.5 36.5t-66.5 119.5q0 26 7 100q4 54 5.5 92.5t-26 63t-94.5 33.5q-2 4 0.5 17.5t6.5 15.5z" />
    <glyph glyph-name="bar" unicode="|" horiz-adv-x="297" 
d="M108 710h81v-1020h-81v1020z" />
    <glyph glyph-name="braceright" unicode="}" horiz-adv-x="436" 
d="M378 258q-52 -1 -77 -21t-26.5 -53t3.5 -79q7 -63 7 -84q0 -98 -59 -149t-162 -59q-3 2 -5 16.5t1 17.5q76 17 104.5 47.5t28.5 91.5q0 23 -6.5 75.5t-6.5 78.5q0 104 117 135v6q-125 13 -125 129q0 32 6 91t6 82q0 63 -36 90t-96 34q-1 5 2 19.5t5 16.5q86 3 151.5 -37
t66.5 -119q0 -26 -7 -100q-7 -89 -3 -113q10 -53 73 -72q20 -6 47 -10q1 -5 -2 -18t-7 -16z" />
    <glyph glyph-name="asciitilde" unicode="~" horiz-adv-x="547" 
d="M201 307q35 0 98 -30q54 -25 79 -25q58 0 114 64h2q3 0 6 -1t4 -2q0 -28 -7 -49q-17 -30 -59 -58.5t-88 -28.5q-31 0 -100 36q-45 21 -80 21q-25 0 -62 -23.5t-55 -43.5q-2 -2 -5 0t-3 5q0 9 4.5 29.5t6.5 23.5q21 27 67.5 54.5t77.5 27.5z" />
    <glyph glyph-name="uni00A0" unicode="&#xa0;" horiz-adv-x="177" 
 />
    <glyph glyph-name="exclamdown" unicode="&#xa1;" horiz-adv-x="299" 
d="M86 -195q-19 0 -32 11q0 22 24 167t39 220q6 1 23 -2t20 -6q63 -304 66 -339q2 -6 -4 -18.5t-14 -16.5q-19 -8 -60 -12.5t-62 -3.5zM133 264q-31 0 -51 17q-25 23 -25 61q0 30 22 54q21 21 60 21q31 0 52 -20q20 -23 20 -57q0 -33 -25 -56q-23 -20 -53 -20z" />
    <glyph glyph-name="cent" unicode="&#xa2;" horiz-adv-x="508" 
d="M262 172l28 281q0 5 -4 5q-40 -5 -68.5 -41.5t-28.5 -99.5q0 -113 73 -145zM61 285q0 52 29 99t80 74q53 31 125 39l7 78q18 6 42 6l-9 -82q47 0 82 -13q32 -14 38 -27q2 -9 -2 -19q-4 -9 -16.5 -24.5t-19.5 -19.5q-7 -2 -13 0q-4 4 -13 14t-15.5 16.5t-18 14.5t-23.5 12
q-3 1 -5 -4l-26 -288q5 0 14 -0.5t13 -0.5q64 0 117 45q7 -10 4 -33q-57 -72 -152 -92q-5 0 -5 -5l-8 -81q-15 -4 -42 -4l9 84q0 4 -4 4q-93 8 -144 67q-44 49 -44 140z" />
    <glyph glyph-name="sterling" unicode="&#xa3;" horiz-adv-x="508" 
d="M322 -26q-36 0 -106 22q-80 24 -111 24q-37 0 -71 -36q-2 0 -8 3.5t-7 5.5q2 11 12.5 44.5t13.5 36.5q15 12 40 25q10 5 15 10.5t11 44.5t2 109q-54 0 -74 2q-2 2 -2 7q3 23 13 35q2 0 23.5 -0.5t38.5 -0.5q-2 132 49 196q39 49 93 71t84 22t52 -6t30.5 -13t8.5 -12
q0 -15 -8.5 -38.5t-17.5 -35.5q-1 -3 -7 -3t-8 2l-13 13q-13 14 -18.5 18.5t-17.5 14t-23 13t-22 3.5q-17 0 -26 -18q-16 -30 -16 -222q0 -5 5 -5q75 0 116 3q1 -2 0.5 -8.5t-2.5 -8.5q-17 -21 -39 -25q-32 -5 -79 -5q-5 0 -5 -4q-22 -95 -98 -149q32 6 108 -5
q71 -11 92 -11q44 0 65.5 15t44.5 71q1 1 4.5 1.5t4.5 -0.5q15 -15 16 -24q-26 -87 -69.5 -134.5t-93.5 -47.5z" />
    <glyph glyph-name="currency" unicode="&#xa4;" horiz-adv-x="508" 
d="M272 469q43 0 82 -24q1 -1 3 -1t3 1q38 43 49 50q10 5 54 5q4 -4 4 -12q-34 -37 -71 -85q27 -40 27 -99q0 -62 -33 -109q-2 -5 0 -10q55 -63 73 -80q0 -9 -5 -14q-12 -4 -37.5 -7t-30.5 0q-44 37 -59 55q-39 -29 -94 -29q-54 0 -93 33l-71 -71q-1 -1 -6 0t-6 2
q-4 8 -6 29t1 25q11 15 28 32t22 23v7q-21 42 -21 88q0 60 29 103l-52 60q-2 6 -2 13q0 4 11 25.5t19 30.5q1 1 6.5 1t7.5 -1q41 -53 60 -71q3 -3 8 0q40 30 100 30zM245 411q-44 0 -66.5 -31.5t-22.5 -79.5q0 -62 31.5 -94.5t77.5 -32.5q86 0 86 110q0 53 -30 90.5
t-76 37.5z" />
    <glyph glyph-name="yen" unicode="&#xa5;" horiz-adv-x="508" 
d="M321 161q-4 0 -4 -5q0 -13 0.5 -32t0.5 -28q1 -17 2.5 -26t9 -17.5t20.5 -11.5q4 -1 53 -10q2 -3 0.5 -16.5t-3.5 -17.5q-19 0 -75.5 1.5t-86.5 1.5q-26 0 -70.5 -1.5t-71.5 -1.5q-3 2 -3 17.5t3 16.5q38 4 54 9q30 7 30 54q1 18 1 63q0 4 -3 4q-32 -1 -53.5 -1.5
t-29.5 -0.5q0 32 7 39h18q19 -1 57 -1q4 0 4 4v49q0 7 -6 7q-25 0 -49 -0.5t-28 -0.5q3 34 7 38q2 0 25 -0.5t44 -0.5q2 0 2.5 2.5t-0.5 4.5q-36 94 -85 185q-16 34 -29 46t-32 17q-10 2 -31 5q-2 5 -1 17.5t4 16.5q15 0 57.5 -1.5t70.5 -1.5q73 0 127 3q3 -4 3 -18t-2 -16
q-14 -2 -27 -6q-18 -5 -9 -29q24 -65 71 -165q1 -2 6 0q46 92 70 160q7 25 -16 31q-13 5 -44 9q-1 6 0 19t4 15q3 0 35 -2t60 -2q27 0 58 2t37 2q2 -3 2 -17.5t-2 -16.5q-22 -3 -33 -7q-22 -8 -36 -21t-31 -46q-61 -120 -86 -180q-1 -2 0.5 -4t3.5 -2q21 0 39.5 0.5t28 1
t13.5 0.5q2 -16 -4 -38q-5 0 -29 0.5t-48 0.5q-4 0 -4 -4v-51q0 -6 4 -6q15 0 46 0.5t34 0.5q3 -20 -5 -38q-4 0 -27.5 0.5t-47.5 0.5z" />
    <glyph glyph-name="brokenbar" unicode="&#xa6;" horiz-adv-x="298" 
d="M107 631h83v-348h-83v348zM107 127h83v-355h-83v355z" />
    <glyph glyph-name="section" unicode="&#xa7;" horiz-adv-x="477" 
d="M250 531q-17 0 -19 -22q0 -19 15 -54q14 -30 106 -172q64 -95 64 -169q0 -73 -41 -137q-30 -51 -82 -85t-92 -34q-76 0 -129 49q-15 15 -15 29q0 5 6.5 25.5t12.5 28.5q4 2 6 2q32 -37 71.5 -54.5t59.5 -17.5q17 0 17 20q0 22 -24 58q-4 7 -78 114q-88 131 -88 223
q0 108 71 186q25 29 65.5 50.5t73.5 21.5q71 0 116 -43q15 -12 15 -28q0 -22 -18 -49l-7 -2q-17 15 -54 37.5t-52 22.5zM281 -71q68 36 68 125q0 37 -12.5 75t-25 60t-40.5 67q-3 5 -17 25.5t-19 29.5t-16.5 28t-17 31t-12.5 29t-10 32.5t-4 30.5q-3 32 10 68
q-37 -6 -61 -45t-24 -84q0 -88 80 -213q4 -7 30 -44.5t38.5 -58t26 -52t13.5 -52.5q2 -30 -7 -52z" />
    <glyph glyph-name="dieresis" unicode="&#xa8;" horiz-adv-x="400" 
d="M166 539q0 -28 -24 -52q-5 -5 -29 -7t-31 1q-22 13 -29 39q-4 34 4 43q22 22 64 22q28 0 38 -13q7 -13 7 -33zM345 539q0 -30 -24 -52q-5 -5 -29 -7t-31 1q-20 13 -29 39q-4 32 4 43q9 9 28.5 15.5t35.5 6.5q26 0 39 -13q6 -11 6 -33z" />
    <glyph glyph-name="copyright" unicode="&#xa9;" horiz-adv-x="729" 
d="M365 626q133 0 224.5 -93t91.5 -227t-92.5 -228t-223.5 -94q-132 0 -224 93t-92 229q0 133 92.5 226.5t223.5 93.5zM365 590q-113 0 -193.5 -83t-80.5 -201t81 -201t195 -83q112 0 192 84t80 200q0 118 -80.5 201t-193.5 83zM395 466q-48 0 -74.5 -43.5t-26.5 -110.5
q0 -38 9 -71.5t36 -60t69 -26.5q46 0 94 70q3 0 12 -6t9 -9q-5 -18 -22.5 -46.5t-24.5 -32.5q-35 -11 -85 -11q-98 0 -154 49.5t-56 137.5q0 80 55.5 134t158.5 54q30 0 70 -5q32 -4 54 -4q-7 -43 -9 -104q-2 -2 -14 -3t-14 1q-7 51 -33 70q-23 17 -54 17z" />
    <glyph glyph-name="ordfeminine" unicode="&#xaa;" horiz-adv-x="316" 
d="M317 274q2 -3 -0.5 -17t-5.5 -17q-13 -14 -39.5 -22.5t-49.5 -8.5q-38 0 -46 26q-2 2 -4 12l-4 1q-55 -38 -77 -38q-25 0 -43 18q-26 24 -26 67q0 24 11 39q11 7 67 23t68 22q5 5 5 8q1 4 1 11q0 25 -9 37q-17 23 -48 23q-23 0 -31 -10q-10 -10 -22 -38q-2 -2 -16.5 3
t-14.5 8q0 4 6.5 23.5t9.5 22.5q26 19 59 31.5t51 12.5q27 0 52.5 -13t36.5 -32q20 -28 20 -72q0 -16 -1.5 -49t-1.5 -47q0 -28 25 -28q11 0 27 4zM173 351q0 4 -3 4q-38 -15 -49 -26q-7 -3 -7 -19q0 -41 39 -41q7 0 13 4q5 3 5 11q2 46 2 67z" />
    <glyph glyph-name="guillemotleft" unicode="&#xab;" horiz-adv-x="671" 
d="M426 190q38 -23 90.5 -64.5t69.5 -62.5q3 -3 4.5 -21t0.5 -26q-3 -5 -7 -5q-26 24 -128 86.5t-147 78.5q4 22 9 29q67 30 154.5 84t122.5 82l5 -6q0 -8 -3 -26t-4 -19q-16 -19 -69.5 -57.5t-96.5 -65.5q-4 -4 -1 -7zM188 190q38 -23 90.5 -64.5t69.5 -62.5q3 -3 4 -21.5
t0 -25.5q-1 -2 -7 -5q-24 24 -126.5 86.5t-147.5 78.5q3 20 8 29q69 29 155 82.5t123 83.5q4 -2 5 -6q0 -8 -3 -26t-4 -19q-17 -19 -70.5 -58t-95.5 -65q-4 -4 -1 -7z" />
    <glyph glyph-name="logicalnot" unicode="&#xac;" horiz-adv-x="547" 
d="M85 273q-35 0 -35 7q10 51 17 63q11 -2 190 -2h80t60 0.5t39.5 0.5h25.5h10t3.5 -2.5t2.5 -4.5q0 -5 -0.5 -78.5t-0.5 -110.5q0 -65 2 -91q-33 -11 -64 -11q-2 0 -4.5 3t-2.5 5q-1 43 -1 192q0 29 -17 29h-305z" />
    <glyph glyph-name="uni00AD" unicode="&#xad;" horiz-adv-x="303" 
d="M52 243l214 6v-12q-1 -13 -7.5 -39t-10.5 -27q-6 -2 -95.5 -4.5t-114.5 -2.5q-1 9 -1 11q1 16 6.5 42t8.5 26z" />
    <glyph glyph-name="registered" unicode="&#xae;" horiz-adv-x="325" 
d="M163 609q58 0 98 -39.5t40 -99.5q0 -58 -40 -98.5t-98 -40.5t-98 39.5t-40 99.5q0 58 40.5 98.5t97.5 40.5zM163 583q-47 0 -77.5 -32.5t-30.5 -80.5q0 -46 31.5 -79t76.5 -33q46 0 77 33t31 79q0 47 -31.5 80t-76.5 33zM92 410q-2 7 0 13q20 3 20 13v76q0 11 -18 12
q-1 1 -1 7.5t2 7.5q3 0 16 -0.5t19 -0.5h53q40 0 40 -33q0 -23 -27 -32q16 -28 26 -38q11 -11 24 -13q1 -1 -0.5 -6.5t-3.5 -6.5q-3 -1 -19.5 0t-23.5 2q-9 3 -16 12q-5 7 -11.5 18.5t-9.5 16.5q-3 8 -8 8v-29q0 -9 17 -13q1 -2 1 -7t-1 -7q-3 0 -17 1t-21 1q-6 0 -22.5 -1
t-18.5 -1zM154 479q13 0 20 3q10 5 10 17q0 24 -24 24q-6 0 -6 -6v-38z" />
    <glyph glyph-name="macron" unicode="&#xaf;" horiz-adv-x="400" 
d="M97 556q18 -2 48 -2h74h72.5h28.5q0 -11 -7 -38t-10 -28q-14 -3 -188 -3q-29 0 -35 2q1 8 8 37.5t9 31.5z" />
    <glyph glyph-name="degree" unicode="&#xb0;" horiz-adv-x="299" 
d="M144 604q54 0 84 -34t30 -87q0 -49 -35 -82.5t-82 -33.5q-50 0 -83.5 31.5t-33.5 82.5q0 58 35 90.5t85 32.5zM139 552q-27 0 -45.5 -18.5t-18.5 -45.5q0 -34 20 -51.5t48 -17.5q29 0 47 15.5t18 47.5q0 28 -18.5 49t-50.5 21z" />
    <glyph glyph-name="plusminus" unicode="&#xb1;" horiz-adv-x="547" 
d="M488 9l-443 -3q-1 0 -1 10q3 42 12 60q7 -2 114 -2h331l2 -9q0 -9 -5.5 -32t-9.5 -24zM504 360q-11 -53 -18 -54q-5 -1 -33 -1t-73.5 -0.5t-70.5 -0.5q-6 0 -6 -8q0 -25 -0.5 -66.5t-0.5 -69.5v-31q-1 -4 -23 -11t-34 -9q-8 0 -8 4v31.5t-0.5 72.5t-0.5 87
q-70 -1 -189 -1q-3 0 -3 10q6 45 12 60q10 -3 117 -3h63v62q0 82 -2 110q7 3 32.5 8t31.5 5q5 0 5 -35v-141q0 -9 6 -9h191q4 -2 4 -10z" />
    <glyph glyph-name="two.k" unicode="&#xb2;" horiz-adv-x="357" 
d="M123 665q-38 0 -79 -40q-3 -1 -11 9t-8 14q29 46 68 71t79 25q50 0 83.5 -33.5t33.5 -82.5q0 -32 -15.5 -58.5t-53.5 -61.5q-7 -6 -65 -51q0 -5 2 -6q20 -2 102 -2q28 2 54 53q2 2 13.5 -2.5t13.5 -7.5q-25 -92 -39 -112q-8 -15 -40 -17q-28 -1 -92 1t-91 2q-32 0 -46 -1
q-1 3 -1 28q77 53 118 101q38 48 38 102q0 29 -16.5 49t-47.5 20z" />
    <glyph glyph-name="three.k" unicode="&#xb3;" horiz-adv-x="349" 
d="M175 744q47 0 75.5 -25.5t28.5 -63.5q0 -42 -59 -75q-2 -2 0 -3q93 -27 93 -98q0 -63 -71 -105q-53 -31 -111 -31q-42 0 -64 11q-14 8 -22 23q-10 31 -14 57q1 4 10.5 9t12.5 4q18 -37 51 -56q21 -12 51 -12q56 0 56 61q0 37 -26.5 60t-65.5 23q-11 0 -20 -1q-1 3 6 20.5
t10 20.5q76 14 76 54q0 24 -17 41t-44 17q-38 0 -76 -34q-2 0 -8 10.5t-6 14.5q65 78 134 78z" />
    <glyph glyph-name="acute" unicode="&#xb4;" horiz-adv-x="400" 
d="M216 609q8 4 49.5 6t50.5 -1q1 -1 2.5 -6.5t0.5 -7.5q-8 -15 -60.5 -78.5t-70.5 -80.5q-3 -2 -15.5 5.5t-13.5 11.5q49 134 57 151z" />
    <glyph glyph-name="mu" unicode="&#xb5;" horiz-adv-x="492" 
d="M57 378q7 7 50 19.5t62 13.5q13 0 21 -2q0 -12 -4.5 -117t-4.5 -139q0 -20 4 -31q11 -30 41 -30q26 0 45.5 19t27.5 50q5 25 5 40v180q6 7 47 18t62 12q14 0 20 -3q-14 -77 -14 -188q0 -10 -0.5 -39.5t-0.5 -32.5q0 -58 28 -58q16 0 42 13q1 -1 2 -13t0 -17
q-19 -39 -54 -62.5t-64 -23.5q-32 0 -49 20.5t-18 85.5q0 1 -2 1t-3 -1q-27 -57 -59 -81.5t-56 -24.5q-36 0 -49 24q-3 -28 -2 -84q2 -48 32.5 -73.5t84.5 -37.5q1 -2 -2 -14.5t-5 -14.5q-12 -12 -47.5 -26t-58.5 -14q-57 0 -66 121q-4 69 -6 242z" />
    <glyph glyph-name="paragraph" unicode="&#xb6;" horiz-adv-x="588" 
d="M534 572q-5 -1 -15 -2t-18.5 -2t-16.5 -3q-19 -5 -26 -13t-12 -49.5t-4 -130.5v-142v-142q0 -83 -18 -144.5t-47 -93.5t-59 -47t-59 -15q-24 0 -46.5 11t-30.5 26q-14 30 -12 79q1 8 11 14q57 -44 123 -44q50 0 65 55t12 208q-45 -20 -89 -22q-115 14 -180 81t-65 171
q0 52 20.5 93.5t55 68t73 42t80.5 21.5q52 7 153.5 12t105.5 5q3 -4 2 -18t-3 -19zM270 365q0 -79 26.5 -132t83.5 -59q-4 188 -4 240q0 113 13 139q-60 -5 -89.5 -48t-29.5 -140z" />
    <glyph glyph-name="periodcentered" unicode="&#xb7;" horiz-adv-x="260" 
d="M131 276q32 0 53 -21q26 -24 26 -65q0 -34 -22 -56q-23 -24 -62 -24q-30 0 -53 22q-23 23 -23 60q0 36 24 59q27 25 57 25z" />
    <glyph glyph-name="cedilla" unicode="&#xb8;" horiz-adv-x="399" 
d="M209 5l35 -1l-31 -40q34 -20 44 -29q24 -21 24 -51q0 -41 -41.5 -70t-72.5 -29q-43 0 -59 29q-2 16 5 27q32 -16 62 -16q37 0 37 29q0 35 -72 57q0 6 1 10q0 1 14 18.5t32 39t22 26.5z" />
    <glyph glyph-name="one.k" unicode="&#xb9;" horiz-adv-x="338" 
d="M289 394q1 -2 0 -15t-3 -16q-19 0 -58.5 1.5t-66.5 1.5q-29 0 -61 -1.5t-48 -1.5q-2 4 -2 16.5t2 13.5q7 1 19 2.5t18 3.5q14 2 19 11t6 29q2 52 2 111q0 90 -2 108q-2 19 -16 22q-4 1 -18.5 2.5t-19.5 2.5q-2 2 -1.5 14.5t2.5 14.5q96 7 160 32q2 1 6 -0.5t4 -2.5
q-3 -24 -3 -103q0 -172 1 -198q3 -38 22 -42q13 -3 38 -6z" />
    <glyph glyph-name="ordmasculine" unicode="&#xba;" horiz-adv-x="383" 
d="M196 511q75 0 117.5 -42t42.5 -106q0 -88 -67 -127q-38 -26 -100 -26q-79 0 -120.5 41.5t-41.5 110.5q0 80 64 119q47 30 105 30zM184 476q-21 0 -34 -25.5t-13 -69.5q0 -70 17.5 -103.5t45.5 -33.5q46 0 46 99q0 133 -62 133z" />
    <glyph glyph-name="guillemotright" unicode="&#xbb;" horiz-adv-x="671" 
d="M482 191q-37 22 -89.5 64.5t-70.5 63.5q-3 3 -3.5 22t0.5 25q0 2 6 5q25 -24 128 -87t147 -79q-5 -23 -9 -29q-68 -28 -155.5 -82t-121.5 -83q-3 2 -5 5q0 8 3 26t4 20q34 40 165 124q3 2 1 5zM244 191q-37 22 -89.5 64.5t-70.5 63.5q-3 3 -4 22t0 25q1 1 4 3l2 2
q26 -24 129 -87.5t147 -78.5q-5 -24 -10 -29q-67 -30 -155 -84t-121 -81q-3 2 -5 5q0 39 7 46q34 40 165 124q3 2 1 5z" />
    <glyph glyph-name="onequarter" unicode="&#xbc;" horiz-adv-x="817" 
d="M300 246q1 -2 0 -15t-3 -16q-19 0 -58.5 1.5t-66.5 1.5q-29 0 -61 -1.5t-48 -1.5q-2 4 -2 16.5t2 13.5q7 1 19 2.5t18 3.5q14 2 19 11t6 29q2 52 2 111q0 90 -2 108q-2 19 -16 22q-4 1 -18.5 2.5t-19.5 2.5q-2 2 -1.5 14.5t2.5 14.5q96 7 160 32q2 1 6 -0.5t4 -2.5
q-3 -24 -3 -103q0 -172 1 -198q3 -38 22 -42q13 -3 38 -6zM594 630q0 1 17 0t20 -2q3 -3 1 -6q-7 -10 -194.5 -335.5t-201.5 -347.5q-4 -4 -8 -2q-12 11 -20 26q4 9 193 336t193 331zM757 90q-5 0 -24 0.5t-33 0.5q-3 0 -3 -3l1 -110q-58 0 -109 -8l1 118q0 3 -2 3l-69 1
q-22 0 -48.5 -0.5t-32.5 -0.5q-1 3 0.5 16.5t3.5 16.5q167 219 181 236q32 8 72 8q0 -142 1 -220q1 -3 3 -3q17 0 40 0.5t28 0.5q-9 -35 -10 -56zM501 144q5 0 32.5 -0.5t54.5 -0.5q2 0 2 4l2 126q-1 1 -2 0q-31 -36 -90 -125q0 -4 1 -4z" />
    <glyph glyph-name="onehalf" unicode="&#xbd;" horiz-adv-x="817" 
d="M288 246q1 -2 0 -15t-3 -16q-19 0 -58.5 1.5t-66.5 1.5q-29 0 -61 -1.5t-48 -1.5q-2 4 -2 16.5t2 13.5q7 1 19 2.5t18 3.5q14 2 19 11t6 29q2 52 2 111q0 90 -2 108q-2 19 -16 22q-4 1 -18.5 2.5t-19.5 2.5q-2 2 -1.5 14.5t2.5 14.5q96 7 160 32q2 1 6 -0.5t4 -2.5
q-3 -24 -3 -103q0 -172 1 -198q3 -38 22 -42q13 -3 38 -6zM576 630q0 1 17 0t20 -2q3 -3 1 -6q-7 -10 -194.5 -335.5t-201.5 -347.5q-4 -4 -8 -2q-12 11 -20 26q4 9 193 336t193 331zM565 287q-38 0 -79 -40q-3 -1 -11 9t-8 14q29 46 68 71t79 25q50 0 83.5 -33.5
t33.5 -82.5q0 -32 -15.5 -58.5t-53.5 -61.5q-7 -6 -65 -51q0 -5 2 -6q20 -2 102 -2q28 2 54 53q2 2 13.5 -2.5t13.5 -7.5q-25 -92 -39 -112q-8 -15 -40 -17q-27 -1 -91.5 1t-91.5 2q-32 0 -46 -1q-1 3 -1 28q77 53 118 101q38 47 38 102q0 29 -16.5 49t-47.5 20z" />
    <glyph glyph-name="threequarters" unicode="&#xbe;" horiz-adv-x="817" 
d="M201 596q47 0 75.5 -25.5t28.5 -63.5q0 -42 -59 -75q-2 -2 0 -3q93 -27 93 -98q0 -63 -71 -105q-53 -31 -111 -31q-42 0 -64 11q-14 8 -22 23q-10 31 -14 57q1 4 10.5 9t12.5 4q18 -37 51 -56q21 -12 51 -12q56 0 56 61q0 37 -26.5 60t-65.5 23q-11 0 -20 -1q-1 3 6 20.5
t10 20.5q76 14 76 54q0 24 -17 41t-44 17q-38 0 -76 -34q-2 0 -8 10.5t-6 14.5q65 78 134 78zM601 630q0 1 17 0t20 -2q3 -3 1 -6q-7 -10 -194.5 -335.5t-201.5 -347.5q-4 -4 -8 -2q-12 11 -20 26q4 9 193 336t193 331zM758 90q-6 0 -24 0.5t-33 0.5q-3 0 -3 -3l1 -110
q-58 0 -109 -8l1 118q0 3 -2 3l-69 1q-22 0 -48.5 -0.5t-32.5 -0.5q-1 3 0.5 16.5t3.5 16.5q167 219 181 236q32 8 72 8q0 -142 1 -220q1 -3 3 -3q16 0 40 0.5t28 0.5q-9 -35 -10 -56zM502 144q5 0 32.5 -0.5t54.5 -0.5q2 0 2 4l2 126q-1 1 -2 0q-31 -36 -90 -125q0 -4 1 -4
z" />
    <glyph glyph-name="questiondown" unicode="&#xbf;" horiz-adv-x="363" 
d="M175 101q0 22 -28 50q-6 7 4 17q5 5 33 18.5t36 15.5q15 2 26 -3q24 -10 38 -29.5t14 -37.5q0 -26 -12 -33q-10 -7 -57 -30.5t-56 -28.5q-24 -13 -24 -37q0 -57 121 -89q6 -2 25 -7q14 -3 14 -20q0 -11 -14.5 -40t-26.5 -37q-13 -11 -32 -11q-68 0 -127 45
q-67 49 -67 111q0 45 18 61q9 9 23 18.5t43 25t32 17.5q17 9 17 24zM199 263q-31 0 -51 17q-25 24 -25 61q0 30 22 54q21 21 60 21q31 0 52 -20q21 -22 21 -57q0 -32 -26 -56q-23 -20 -53 -20z" />
    <glyph glyph-name="Agrave" unicode="&#xc0;" horiz-adv-x="627" 
d="M-20 31q53 8 71.5 21.5t37.5 58.5q77 182 161 424q17 42 20 70q30 -2 52 -2t50 2l17 -58q4 -11 66 -185.5t82 -227.5q25 -64 41.5 -79t71.5 -24q2 -3 0.5 -17t-4.5 -17q-6 0 -53.5 1.5t-92.5 1.5q-48 0 -94 -1.5t-59 -1.5q-2 5 -2 18t2 16q40 8 49 14q14 8 10 19
q-14 56 -46 137q-7 7 -10 7h-76q-66 0 -80 -1q-6 0 -11 -9q-38 -110 -38 -124q2 -28 28 -33q22 -5 49 -10q2 -3 0.5 -17t-3.5 -17q-11 0 -52 1.5t-74 1.5q-19 0 -57.5 -1.5t-55.5 -1.5q-2 4 -2.5 17t2.5 17zM250 797q12 -8 56 -60t61 -76q2 -3 -8.5 -15t-13.5 -12
q-7 0 -80.5 40t-89.5 52v15q6 10 35 32.5t40 23.5zM275 459h-4q-11 -31 -33.5 -99t-28.5 -86q-2 -7 2 -7q11 -1 57 -1q57 0 67 1q3 0 3 5q-39 122 -63 187z" />
    <glyph glyph-name="Aacute" unicode="&#xc1;" horiz-adv-x="627" 
d="M-20 31q53 8 71.5 21.5t37.5 58.5q77 182 161 424q17 42 20 70q30 -2 52 -2t50 2l17 -58q4 -11 66 -185.5t82 -227.5q25 -64 41.5 -79t71.5 -24q2 -3 0.5 -17t-4.5 -17q-6 0 -53.5 1.5t-92.5 1.5q-48 0 -94 -1.5t-59 -1.5q-2 5 -2 18t2 16q40 8 49 14q14 8 10 19
q-14 56 -46 137q-7 7 -10 7h-76q-66 0 -80 -1q-6 0 -11 -9q-38 -110 -38 -124q2 -28 28 -33q22 -5 49 -10q2 -3 0.5 -17t-3.5 -17q-11 0 -52 1.5t-74 1.5q-19 0 -57.5 -1.5t-55.5 -1.5q-2 4 -2.5 17t2.5 17zM275 459h-4q-11 -31 -33.5 -99t-28.5 -86q-2 -7 2 -7q11 -1 57 -1
q57 0 67 1q3 0 3 5q-39 122 -63 187zM400 786q10 0 36.5 -21.5t31.5 -32.5q1 -1 1 -5.5t-1 -5.5q-13 -12 -93.5 -52t-87.5 -40q-3 0 -12 11t-9 16q27 29 73.5 75t60.5 55z" />
    <glyph glyph-name="Acircumflex" unicode="&#xc2;" horiz-adv-x="627" 
d="M-20 31q53 8 71.5 21.5t37.5 58.5q77 182 161 424q17 42 20 70q30 -2 52 -2t50 2l17 -58q4 -11 66 -185.5t82 -227.5q25 -64 41.5 -79t71.5 -24q2 -3 0.5 -17t-4.5 -17q-6 0 -53.5 1.5t-92.5 1.5q-48 0 -94 -1.5t-59 -1.5q-2 5 -2 18t2 16q40 8 49 14q14 8 10 19
q-14 56 -46 137q-7 7 -10 7h-76q-66 0 -80 -1q-6 0 -11 -9q-38 -110 -38 -124q2 -28 28 -33q22 -5 49 -10q2 -3 0.5 -17t-3.5 -17q-11 0 -52 1.5t-74 1.5q-19 0 -57.5 -1.5t-55.5 -1.5q-2 4 -2.5 17t2.5 17zM275 459h-4q-11 -31 -33.5 -99t-28.5 -86q-2 -7 2 -7q11 -1 57 -1
q57 0 67 1q3 0 3 5q-39 122 -63 187zM307 761q9 6 21 6q9 -9 63 -53.5t76 -60.5q0 -4 -7.5 -15.5t-9.5 -11.5q-5 0 -60.5 22.5t-69.5 29.5q-4 2 -9 0q-17 -9 -66.5 -30.5t-53.5 -21.5t-10.5 11t-4.5 15q26 19 73.5 58t57.5 51z" />
    <glyph glyph-name="Atilde" unicode="&#xc3;" horiz-adv-x="627" 
d="M-20 31q53 8 71.5 21.5t37.5 58.5q77 182 161 424q17 42 20 70q30 -2 52 -2t50 2l17 -58q4 -11 66 -185.5t82 -227.5q25 -64 41.5 -79t71.5 -24q2 -3 0.5 -17t-4.5 -17q-6 0 -53.5 1.5t-92.5 1.5q-48 0 -94 -1.5t-59 -1.5q-2 5 -2 18t2 16q40 8 49 14q14 8 10 19
q-14 56 -46 137q-7 7 -10 7h-76q-66 0 -80 -1q-6 0 -11 -9q-38 -110 -38 -124q2 -28 28 -33q22 -5 49 -10q2 -3 0.5 -17t-3.5 -17q-11 0 -52 1.5t-74 1.5q-19 0 -57.5 -1.5t-55.5 -1.5q-2 4 -2.5 17t2.5 17zM275 459h-4q-11 -31 -33.5 -99t-28.5 -86q-2 -7 2 -7q11 -1 57 -1
q57 0 67 1q3 0 3 5q-39 122 -63 187zM394 714q38 0 74 35q2 2 4 -4q6 -16 5 -25q-12 -23 -46.5 -47t-66.5 -24q-20 0 -74 17q-28 10 -45 10q-28 0 -66 -33q-1 -1 -4 3q-10 18 -6 24q10 18 45 45t57 27t67 -15q41 -13 56 -13z" />
    <glyph glyph-name="Adieresis" unicode="&#xc4;" horiz-adv-x="627" 
d="M-20 31q53 8 71.5 21.5t37.5 58.5q77 182 161 424q17 42 20 70q30 -2 52 -2t50 2l17 -58q4 -11 66 -185.5t82 -227.5q25 -64 41.5 -79t71.5 -24q2 -3 0.5 -17t-4.5 -17q-6 0 -53.5 1.5t-92.5 1.5q-48 0 -94 -1.5t-59 -1.5q-2 5 -2 18t2 16q40 8 49 14q14 8 10 19
q-14 56 -46 137q-7 7 -10 7h-76q-66 0 -80 -1q-6 0 -11 -9q-38 -110 -38 -124q2 -28 28 -33q22 -5 49 -10q2 -3 0.5 -17t-3.5 -17q-11 0 -52 1.5t-74 1.5q-19 0 -57.5 -1.5t-55.5 -1.5q-2 4 -2.5 17t2.5 17zM275 459h-4q-11 -31 -33.5 -99t-28.5 -86q-2 -7 2 -7q11 -1 57 -1
q57 0 67 1q3 0 3 5q-39 122 -63 187zM287 694q0 -31 -25 -54q-5 -5 -29.5 -7t-31.5 2q-23 12 -30 40q-7 29 4 44q21 21 66 21q29 0 39 -12q7 -13 7 -34zM470 694q0 -31 -25 -54q-5 -5 -29.5 -7t-31.5 2q-22 11 -30 40q-7 29 4 44q21 21 65 21q28 0 40 -12q7 -13 7 -34z" />
    <glyph glyph-name="Aring" unicode="&#xc5;" horiz-adv-x="627" 
d="M-20 31q53 8 71.5 21.5t37.5 58.5q77 182 161 424q17 42 20 70q30 -2 52 -2t50 2l17 -58q4 -11 66 -185.5t82 -227.5q25 -64 41.5 -79t71.5 -24q2 -3 0.5 -17t-4.5 -17q-6 0 -53.5 1.5t-92.5 1.5q-48 0 -94 -1.5t-59 -1.5q-2 5 -2 18t2 16q40 8 49 14q14 8 10 19
q-14 56 -46 137q-7 7 -10 7h-76q-66 0 -80 -1q-6 0 -11 -9q-38 -110 -38 -124q2 -28 28 -33q22 -5 49 -10q2 -3 0.5 -17t-3.5 -17q-11 0 -52 1.5t-74 1.5q-19 0 -57.5 -1.5t-55.5 -1.5q-2 4 -2.5 17t2.5 17zM275 459h-4q-11 -31 -33.5 -99t-28.5 -86q-2 -7 2 -7q11 -1 57 -1
q57 0 67 1q3 0 3 5q-39 122 -63 187zM323 776q37 0 58.5 -22t21.5 -54q0 -36 -23.5 -58t-60.5 -22q-29 0 -55.5 19t-26.5 57q0 36 22 58t64 22zM319 735q-46 0 -46 -37q0 -17 14.5 -26.5t35.5 -9.5q18 0 32 10t14 24q0 39 -50 39z" />
    <glyph glyph-name="AE" unicode="&#xc6;" horiz-adv-x="867" 
d="M232 572q-3 5 -2 18.5t4 16.5q16 0 93.5 -2t116.5 -2h208q94 0 131 8l4 -4q-8 -41 -16 -154q-4 -4 -19 -4t-19 3q-7 49 -20 74q-12 24 -39 26q-19 2 -73.5 2.5t-70.5 -1.5q-8 -2 -8 -18q12 -158 17 -210q2 -8 7 -8q89 0 123 2q27 1 36 34q2 4 3.5 10.5t3 14.5t2.5 12
q4 3 20 2t20 -4q0 -3 -2.5 -40t-2.5 -58q0 -53 2 -97q-6 -3 -20.5 -4t-19.5 3q-5 23 -12 44q-8 23 -34 26q-17 2 -113 2q-6 0 -6 -8q10 -121 14 -161q3 -40 22 -43q18 -3 103 -3q32 0 49.5 6t30.5 25q32 42 53 90q6 1 20 -4t17 -9q-2 -22 -16 -71.5t-25 -72.5
q-5 -12 -17.5 -14.5t-42.5 -2.5q-3 0 -89.5 2t-163.5 2q-26 0 -91.5 -2t-92.5 -2q-3 6 -3.5 19t1.5 16q68 11 74 13q28 8 26 48q-1 54 -10 161q-2 7 -5 7q-16 1 -93 1q-23 0 -43 -0.5t-24 -0.5q-6 0 -11 -9q-78 -152 -80 -175q-3 -27 26 -35l51 -10q2 -3 1 -16t-3 -19
q-20 0 -64 2t-69 2q-20 0 -59 -2t-53 -2q-3 4 -3 17.5t4 17.5q52 9 72 22t44 56q86 150 228 438q0 7 -4 10zM382 551q-1 1 -3.5 1t-4.5 -1q-11 -25 -54 -112t-55 -114q-3 -6 3 -8q3 0 17 -0.5t30 -0.5q64 0 79 1q5 0 5 4q-10 173 -17 230z" />
    <glyph glyph-name="Ccedilla" unicode="&#xc7;" horiz-adv-x="669" 
d="M574 437q-10 52 -24 77.5t-41 40.5q-45 26 -116 26q-82 0 -130.5 -66t-48.5 -197q0 -54 12.5 -102t37.5 -89.5t69 -66t102 -24.5q63 0 97 31q41 36 76 100q21 -5 30 -21q-10 -34 -35.5 -80.5t-45.5 -59.5q-76 -22 -139 -24l-15 -24q25 -12 46 -28q26 -21 26 -54
q0 -45 -43 -75t-76 -30q-41 0 -61 31q0 13 4 25q31 -17 64 -17q41 0 41 32q0 39 -77 63q0 6 2 9l51 69q-158 6 -244 88.5t-86 236.5q0 87 42 159.5t122 111.5q84 42 203 42q51 0 117 -7q64 -7 79 -6q-5 -112 -2 -166q-3 -4 -19.5 -6.5t-17.5 1.5z" />
    <glyph glyph-name="Egrave" unicode="&#xc8;" horiz-adv-x="586" 
d="M30 572q-3 4 -2 18t4 16q18 0 71.5 -1.5t79.5 -1.5h201q88 0 130 6q3 0 3 -4q-8 -34 -14 -151q-4 -3 -19 -4t-19 1q-9 53 -19 74q-12 24 -41 26q-19 2 -73.5 2.5t-65.5 -1.5q-3 -1 -6.5 -7.5t-3.5 -10.5v-194q0 -8 7 -8q111 0 127 1q28 1 36 35q2 6 4.5 19t3.5 17
q4 2 20 1.5t20 -3.5q0 -4 -2.5 -41t-2.5 -56q0 -45 2 -101q-4 -2 -19.5 -2.5t-19.5 1.5l-10 41q-10 25 -34 29q-18 2 -125 2q-2 0 -4.5 -3.5t-2.5 -5.5v-176q0 -28 21 -33q33 -7 124 -7q34 0 49.5 5.5t31.5 24.5q27 31 53 92q5 1 19.5 -4t17.5 -9q-22 -102 -46 -147
q-7 -16 -52 -16q-39 0 -134.5 2t-151.5 2q-26 0 -89.5 -1.5t-90.5 -1.5q-2 6 -2 18t2 16q57 8 74 13q28 8 28 48q3 57 3 241q0 152 -3 188q-1 20 -7 28.5t-21 13.5t-52 9zM238 805q12 -8 56 -60t61 -76q2 -3 -8.5 -15t-13.5 -12q-7 0 -80.5 40t-89.5 52v15q6 10 35 32.5
t40 23.5z" />
    <glyph glyph-name="Eacute" unicode="&#xc9;" horiz-adv-x="586" 
d="M30 572q-3 4 -2 18t4 16q18 0 71.5 -1.5t79.5 -1.5h201q88 0 130 6q3 0 3 -4q-8 -34 -14 -151q-4 -3 -19 -4t-19 1q-9 53 -19 74q-12 24 -41 26q-19 2 -73.5 2.5t-65.5 -1.5q-3 -1 -6.5 -7.5t-3.5 -10.5v-194q0 -8 7 -8q111 0 127 1q28 1 36 35q2 6 4.5 19t3.5 17
q4 2 20 1.5t20 -3.5q0 -4 -2.5 -41t-2.5 -56q0 -45 2 -101q-4 -2 -19.5 -2.5t-19.5 1.5l-10 41q-10 25 -34 29q-18 2 -125 2q-2 0 -4.5 -3.5t-2.5 -5.5v-176q0 -28 21 -33q33 -7 124 -7q34 0 49.5 5.5t31.5 24.5q27 31 53 92q5 1 19.5 -4t17.5 -9q-22 -102 -46 -147
q-7 -16 -52 -16q-39 0 -134.5 2t-151.5 2q-26 0 -89.5 -1.5t-90.5 -1.5q-2 6 -2 18t2 16q57 8 74 13q28 8 28 48q3 57 3 241q0 152 -3 188q-1 20 -7 28.5t-21 13.5t-52 9zM390 797q10 0 36.5 -21.5t31.5 -32.5q1 -1 1 -5.5t-1 -5.5q-13 -12 -93.5 -52t-87.5 -40q-3 0 -12 11
t-9 16q27 29 73.5 75t60.5 55z" />
    <glyph glyph-name="Ecircumflex" unicode="&#xca;" horiz-adv-x="586" 
d="M30 572q-3 4 -2 18t4 16q18 0 71.5 -1.5t79.5 -1.5h201q88 0 130 6q3 0 3 -4q-8 -34 -14 -151q-4 -3 -19 -4t-19 1q-9 53 -19 74q-12 24 -41 26q-19 2 -73.5 2.5t-65.5 -1.5q-3 -1 -6.5 -7.5t-3.5 -10.5v-194q0 -8 7 -8q111 0 127 1q28 1 36 35q2 6 4.5 19t3.5 17
q4 2 20 1.5t20 -3.5q0 -4 -2.5 -41t-2.5 -56q0 -45 2 -101q-4 -2 -19.5 -2.5t-19.5 1.5l-10 41q-10 25 -34 29q-18 2 -125 2q-2 0 -4.5 -3.5t-2.5 -5.5v-176q0 -28 21 -33q33 -7 124 -7q34 0 49.5 5.5t31.5 24.5q27 31 53 92q5 1 19.5 -4t17.5 -9q-22 -102 -46 -147
q-7 -16 -52 -16q-39 0 -134.5 2t-151.5 2q-26 0 -89.5 -1.5t-90.5 -1.5q-2 6 -2 18t2 16q57 8 74 13q28 8 28 48q3 57 3 241q0 152 -3 188q-1 20 -7 28.5t-21 13.5t-52 9zM282 778q9 6 21 6q9 -9 63 -53.5t76 -60.5q0 -4 -7.5 -15.5t-9.5 -11.5q-5 0 -60.5 22.5t-69.5 29.5
q-4 2 -9 0q-17 -9 -66.5 -30.5t-53.5 -21.5t-10.5 11t-4.5 15q26 19 73.5 58t57.5 51z" />
    <glyph glyph-name="Edieresis" unicode="&#xcb;" horiz-adv-x="586" 
d="M30 572q-3 4 -2 18t4 16q18 0 71.5 -1.5t79.5 -1.5h201q88 0 130 6q3 0 3 -4q-8 -34 -14 -151q-4 -3 -19 -4t-19 1q-9 53 -19 74q-12 24 -41 26q-19 2 -73.5 2.5t-65.5 -1.5q-3 -1 -6.5 -7.5t-3.5 -10.5v-194q0 -8 7 -8q111 0 127 1q28 1 36 35q2 6 4.5 19t3.5 17
q4 2 20 1.5t20 -3.5q0 -4 -2.5 -41t-2.5 -56q0 -45 2 -101q-4 -2 -19.5 -2.5t-19.5 1.5l-10 41q-10 25 -34 29q-18 2 -125 2q-2 0 -4.5 -3.5t-2.5 -5.5v-176q0 -28 21 -33q33 -7 124 -7q34 0 49.5 5.5t31.5 24.5q27 31 53 92q5 1 19.5 -4t17.5 -9q-22 -102 -46 -147
q-7 -16 -52 -16q-39 0 -134.5 2t-151.5 2q-26 0 -89.5 -1.5t-90.5 -1.5q-2 6 -2 18t2 16q57 8 74 13q28 8 28 48q3 57 3 241q0 152 -3 188q-1 20 -7 28.5t-21 13.5t-52 9zM263 717q0 -31 -25 -54q-5 -5 -29.5 -7t-31.5 2q-23 12 -30 40q-7 29 4 44q21 21 66 21q29 0 39 -12
q7 -13 7 -34zM446 717q0 -31 -25 -54q-5 -5 -29.5 -7t-31.5 2q-22 11 -30 40q-7 29 4 44q21 21 65 21q28 0 40 -12q7 -13 7 -34z" />
    <glyph glyph-name="Igrave" unicode="&#xcc;" horiz-adv-x="363" 
d="M28 572q-2 4 -2 17.5t3 16.5q14 0 62 -1.5t87 -1.5q58 0 104.5 1.5t47.5 1.5q2 -3 2.5 -16.5t-2.5 -17.5q-38 -6 -52 -10q-15 -6 -19 -16t-5 -35q-1 -15 -1 -188q0 -213 1 -233q2 -41 30 -48q5 -2 14.5 -3.5t22.5 -4t20 -3.5q2 -4 0 -18t-5 -16q-123 3 -150 3
q-52 0 -99 -1.5t-59 -1.5q-4 3 -4 17t4 17q9 1 46 8q20 5 26.5 14.5t8.5 39.5q2 35 2 231q0 154 -3 197q-2 33 -25 41q-21 6 -55 10zM109 799q12 -8 56 -60t61 -76q2 -3 -8.5 -15t-13.5 -12q-7 0 -80.5 40t-89.5 52v15q6 10 35 32.5t40 23.5z" />
    <glyph glyph-name="Iacute" unicode="&#xcd;" horiz-adv-x="363" 
d="M28 572q-2 4 -2 17.5t3 16.5q14 0 62 -1.5t87 -1.5q58 0 104.5 1.5t47.5 1.5q2 -3 2.5 -16.5t-2.5 -17.5q-38 -6 -52 -10q-15 -6 -19 -16t-5 -35q-1 -15 -1 -188q0 -213 1 -233q2 -41 30 -48q5 -2 14.5 -3.5t22.5 -4t20 -3.5q2 -4 0 -18t-5 -16q-123 3 -150 3
q-52 0 -99 -1.5t-59 -1.5q-4 3 -4 17t4 17q9 1 46 8q20 5 26.5 14.5t8.5 39.5q2 35 2 231q0 154 -3 197q-2 33 -25 41q-21 6 -55 10zM271 797q10 0 36.5 -21.5t31.5 -32.5q1 -1 1 -5.5t-1 -5.5q-13 -12 -93.5 -52t-87.5 -40q-3 0 -12 11t-9 16q27 29 73.5 75t60.5 55z" />
    <glyph glyph-name="Icircumflex" unicode="&#xce;" horiz-adv-x="363" 
d="M28 572q-2 4 -2 17.5t3 16.5q14 0 62 -1.5t87 -1.5q58 0 104.5 1.5t47.5 1.5q2 -3 2.5 -16.5t-2.5 -17.5q-38 -6 -52 -10q-15 -6 -19 -16t-5 -35q-1 -15 -1 -188q0 -213 1 -233q2 -41 30 -48q5 -2 14.5 -3.5t22.5 -4t20 -3.5q2 -4 0 -18t-5 -16q-123 3 -150 3
q-52 0 -99 -1.5t-59 -1.5q-4 3 -4 17t4 17q9 1 46 8q20 5 26.5 14.5t8.5 39.5q2 35 2 231q0 154 -3 197q-2 33 -25 41q-21 6 -55 10zM168 775q9 6 21 6q9 -9 63 -53.5t76 -60.5q0 -4 -7.5 -15.5t-9.5 -11.5q-5 0 -60.5 22.5t-69.5 29.5q-4 2 -9 0q-17 -9 -66.5 -30.5
t-53.5 -21.5t-10.5 11t-4.5 15q26 19 73.5 58t57.5 51z" />
    <glyph glyph-name="Idieresis" unicode="&#xcf;" horiz-adv-x="363" 
d="M28 572q-2 4 -2 17.5t3 16.5q14 0 62 -1.5t87 -1.5q58 0 104.5 1.5t47.5 1.5q2 -3 2.5 -16.5t-2.5 -17.5q-38 -6 -52 -10q-15 -6 -19 -16t-5 -35q-1 -15 -1 -188q0 -213 1 -233q2 -41 30 -48q5 -2 14.5 -3.5t22.5 -4t20 -3.5q2 -4 0 -18t-5 -16q-123 3 -150 3
q-52 0 -99 -1.5t-59 -1.5q-4 3 -4 17t4 17q9 1 46 8q20 5 26.5 14.5t8.5 39.5q2 35 2 231q0 154 -3 197q-2 33 -25 41q-21 6 -55 10zM148 717q0 -31 -25 -54q-5 -5 -29.5 -7t-31.5 2q-23 12 -30 40q-7 29 4 44q21 21 66 21q29 0 39 -12q7 -13 7 -34zM331 717q0 -31 -25 -54
q-5 -5 -29.5 -7t-31.5 2q-22 11 -30 40q-7 29 4 44q21 21 65 21q28 0 40 -12q7 -13 7 -34z" />
    <glyph glyph-name="Eth" unicode="&#xd0;" horiz-adv-x="727" 
d="M24 572q-2 4 -1 17.5t3 16.5q10 0 72 -1.5t78 -1.5q31 0 87.5 2t100.5 2q132 0 210 -62q49 -40 75.5 -100.5t26.5 -128.5q0 -150 -100 -237q-100 -86 -280 -86q-32 0 -114.5 2t-127.5 2h-38q-3 5 -3 19t3 15q29 3 59 10q28 7 33 46q3 39 3 209q-68 -2 -79 -2q0 32 8 40
h71q0 121 -3 184q-2 20 -7 28.5t-21 14.5q-15 6 -56 11zM256 95q2 -19 15 -32q28 -27 84 -27q64 0 110 57q57 78 57 208q0 71 -26.5 133.5t-73.5 96.5q-48 35 -127 35q-26 0 -33 -5q-5 -1 -8 -13q-1 -36 -1 -215q140 2 146 2q1 -5 -1 -19.5t-4 -20.5q-24 0 -71.5 0.5
t-69.5 0.5q0 -172 3 -201z" />
    <glyph glyph-name="Ntilde" unicode="&#xd1;" horiz-adv-x="715" 
d="M17 571q-2 3 -2 18t2 17q18 1 67 -1t80 -2q47 0 75 2q10 -21 37 -55q257 -326 289 -364q1 0 2 0.5t2 0.5q0 264 -5 318q-2 26 -11.5 38.5t-33.5 18.5q-22 5 -60 10q-3 3 -2.5 17.5t2.5 16.5q8 0 53 -1.5t82 -1.5q33 0 72.5 1.5t44.5 1.5q3 -2 3 -17t-3 -17q-26 -4 -39 -8
q-23 -7 -32 -19.5t-11 -43.5q-9 -112 -9 -369q0 -66 2 -138q-13 1 -49 1t-51 -2l-350 462q-5 5 -5 -1q-4 -221 2 -348q2 -31 13 -45t33 -19q9 -2 28.5 -5.5t29.5 -5.5q3 -2 3 -16t-4 -18q-17 0 -60 1.5t-67 1.5q-29 0 -73.5 -1.5t-57.5 -1.5q-3 4 -2.5 18t2.5 16q40 7 58 13
q30 9 34 57q10 87 10 390q0 21 -9.5 40t-27.5 25q-33 13 -62 15zM447 730q38 0 74 35q2 2 4 -4q6 -16 5 -25q-12 -23 -46.5 -47t-66.5 -24q-20 0 -74 17q-27 10 -45 10q-28 0 -66 -33q-1 -1 -4 3q-10 18 -6 24q10 18 45 45t57 27t67 -15q41 -13 56 -13z" />
    <glyph glyph-name="Ograve" unicode="&#xd2;" horiz-adv-x="757" 
d="M378 -18q-155 0 -244 91q-84 90 -84 229q0 144 92 225q94 94 246 94q150 0 234 -89t84 -221q0 -123 -60 -202q-95 -127 -268 -127zM408 27q44 0 76 32q61 58 61 218q0 82 -22 154t-66 111q-42 36 -95 36q-47 0 -76 -23q-75 -55 -75 -221q0 -77 23 -152t72 -117
q46 -38 102 -38zM311 814q12 -8 56 -60t61 -76q2 -3 -8.5 -15t-13.5 -12q-7 0 -80.5 40t-89.5 52v15q6 10 35 32.5t40 23.5z" />
    <glyph glyph-name="Oacute" unicode="&#xd3;" horiz-adv-x="757" 
d="M378 -18q-155 0 -244 91q-84 90 -84 229q0 144 92 225q94 94 246 94q150 0 234 -89t84 -221q0 -123 -60 -202q-95 -127 -268 -127zM408 27q44 0 76 32q61 58 61 218q0 82 -22 154t-66 111q-42 36 -95 36q-47 0 -76 -23q-75 -55 -75 -221q0 -77 23 -152t72 -117
q46 -38 102 -38zM447 812q10 0 36.5 -21.5t31.5 -32.5q1 -1 1 -5.5t-1 -5.5q-13 -12 -93.5 -52t-87.5 -40q-3 0 -12 11t-9 16q27 29 73.5 75t60.5 55z" />
    <glyph glyph-name="Ocircumflex" unicode="&#xd4;" horiz-adv-x="757" 
d="M378 -18q-155 0 -244 91q-84 90 -84 229q0 144 92 225q94 94 246 94q150 0 234 -89t84 -221q0 -123 -60 -202q-95 -127 -268 -127zM408 27q44 0 76 32q61 58 61 218q0 82 -22 154t-66 111q-42 36 -95 36q-47 0 -76 -23q-75 -55 -75 -221q0 -77 23 -152t72 -117
q46 -38 102 -38zM364 782q9 6 21 6q9 -9 63 -53.5t76 -60.5q0 -4 -7.5 -15.5t-9.5 -11.5q-5 0 -60.5 22.5t-69.5 29.5q-4 2 -9 0q-17 -9 -66.5 -30.5t-53.5 -21.5t-10.5 11t-4.5 15q26 19 73.5 58t57.5 51z" />
    <glyph glyph-name="Otilde" unicode="&#xd5;" horiz-adv-x="757" 
d="M378 -18q-155 0 -244 91q-84 90 -84 229q0 144 92 225q94 94 246 94q150 0 234 -89t84 -221q0 -123 -60 -202q-95 -127 -268 -127zM408 27q44 0 76 32q61 58 61 218q0 82 -22 154t-66 111q-42 36 -95 36q-47 0 -76 -23q-75 -55 -75 -221q0 -77 23 -152t72 -117
q46 -38 102 -38zM449 736q38 0 74 35q2 2 4 -4q6 -16 5 -25q-12 -23 -46.5 -47t-66.5 -24q-20 0 -74 17q-28 10 -45 10q-28 0 -66 -33q-1 -1 -4 3q-10 18 -6 24q10 18 45 45t57 27t67 -15q41 -13 56 -13z" />
    <glyph glyph-name="Odieresis" unicode="&#xd6;" horiz-adv-x="757" 
d="M378 -18q-155 0 -244 91q-84 90 -84 229q0 144 92 225q94 94 246 94q150 0 234 -89t84 -221q0 -123 -60 -202q-95 -127 -268 -127zM408 27q44 0 76 32q61 58 61 218q0 82 -22 154t-66 111q-42 36 -95 36q-47 0 -76 -23q-75 -55 -75 -221q0 -77 23 -152t72 -117
q46 -38 102 -38zM344 726q0 -31 -25 -54q-5 -5 -29.5 -7t-31.5 2q-23 12 -30 40q-7 29 4 44q21 21 66 21q29 0 39 -12q7 -13 7 -34zM527 726q0 -31 -25 -54q-5 -5 -29.5 -7t-31.5 2q-22 11 -30 40q-7 29 4 44q21 21 65 21q28 0 40 -12q7 -13 7 -34z" />
    <glyph glyph-name="multiply" unicode="&#xd7;" horiz-adv-x="547" 
d="M428 445q4 9 67 13q2 -1 4 -6t1 -8q-49 -65 -184 -214v-7q34 -39 94 -103t84 -84q1 -2 -0.5 -8.5t-3.5 -7.5q-8 -3 -43 1t-46 12q-18 14 -133 139q-5 5 -7 1q-124 -136 -134 -143q-17 -11 -72 -14q-2 1 -4 7t-1 9q13 11 81.5 84t89.5 98q4 5 0 9q-110 119 -165 189
q0 5 15 27.5t20 26.5q1 2 7 2t8 -2q4 -9 68.5 -85.5t98.5 -113.5q130 143 155 178z" />
    <glyph glyph-name="Oslash" unicode="&#xd8;" horiz-adv-x="757" 
d="M201 22l-42 -61q-3 -3 -38 9l-1 4l48 69q-118 90 -118 259q0 144 92 225q94 94 246 94q92 0 160 -35l37 55q1 2 16.5 -0.5t22.5 -5.5v-5l-44 -63q126 -84 126 -256q0 -123 -60 -202q-95 -127 -268 -127q-100 0 -177 40zM241 146l252 363q-48 69 -131 70q-46 0 -76 -24
q-81 -59 -81 -221q0 -108 36 -188zM513 470l-251 -362q50 -81 146 -81q49 0 80 31q63 62 63 219q0 121 -38 193z" />
    <glyph glyph-name="Ugrave" unicode="&#xd9;" horiz-adv-x="708" 
d="M14 572q-2 4 -1.5 17t2.5 17q15 0 68 -1.5t86 -1.5q36 0 88.5 1.5t69.5 1.5q3 -4 3 -17t-3 -17q-11 -1 -28 -4.5t-18 -3.5q-32 -8 -34 -55q-1 -24 -1 -214q0 -79 8 -127q20 -115 158 -115q28 0 51 6t45.5 22t36.5 49t18 81q4 53 4.5 151t-2.5 136q-2 30 -10.5 44.5
t-32.5 19.5q-26 7 -59 10q-2 4 -2 16.5t3 17.5q17 0 58.5 -1.5t65.5 -1.5q45 0 80.5 1.5t40.5 1.5q4 -4 4 -17t-4 -17q-36 -7 -42 -9q-19 -5 -26.5 -19t-9.5 -51q-2 -25 -8 -239q-6 -147 -73.5 -209.5t-191.5 -62.5q-230 0 -251 185q-3 26 -5 71.5t-2 81t-0.5 102t-0.5 90.5
q-2 41 -33 50q-20 7 -52 10zM316 800q12 -8 56 -60t61 -76q2 -3 -8.5 -15t-13.5 -12q-7 0 -80.5 40t-89.5 52v15q6 10 35 32.5t40 23.5z" />
    <glyph glyph-name="Uacute" unicode="&#xda;" horiz-adv-x="708" 
d="M14 572q-2 4 -1.5 17t2.5 17q15 0 68 -1.5t86 -1.5q36 0 88.5 1.5t69.5 1.5q3 -4 3 -17t-3 -17q-11 -1 -28 -4.5t-18 -3.5q-32 -8 -34 -55q-1 -24 -1 -214q0 -79 8 -127q20 -115 158 -115q28 0 51 6t45.5 22t36.5 49t18 81q4 53 4.5 151t-2.5 136q-2 30 -10.5 44.5
t-32.5 19.5q-26 7 -59 10q-2 4 -2 16.5t3 17.5q17 0 58.5 -1.5t65.5 -1.5q45 0 80.5 1.5t40.5 1.5q4 -4 4 -17t-4 -17q-36 -7 -42 -9q-19 -5 -26.5 -19t-9.5 -51q-2 -25 -8 -239q-6 -147 -73.5 -209.5t-191.5 -62.5q-230 0 -251 185q-3 26 -5 71.5t-2 81t-0.5 102t-0.5 90.5
q-2 41 -33 50q-20 7 -52 10zM471 799q10 0 36.5 -21.5t31.5 -32.5q1 -1 1 -5.5t-1 -5.5q-13 -12 -93.5 -52t-87.5 -40q-3 0 -12 11t-9 16q27 29 73.5 75t60.5 55z" />
    <glyph glyph-name="Ucircumflex" unicode="&#xdb;" horiz-adv-x="708" 
d="M14 572q-2 4 -1.5 17t2.5 17q15 0 68 -1.5t86 -1.5q36 0 88.5 1.5t69.5 1.5q3 -4 3 -17t-3 -17q-11 -1 -28 -4.5t-18 -3.5q-32 -8 -34 -55q-1 -24 -1 -214q0 -79 8 -127q20 -115 158 -115q28 0 51 6t45.5 22t36.5 49t18 81q4 53 4.5 151t-2.5 136q-2 30 -10.5 44.5
t-32.5 19.5q-26 7 -59 10q-2 4 -2 16.5t3 17.5q17 0 58.5 -1.5t65.5 -1.5q45 0 80.5 1.5t40.5 1.5q4 -4 4 -17t-4 -17q-36 -7 -42 -9q-19 -5 -26.5 -19t-9.5 -51q-2 -25 -8 -239q-6 -147 -73.5 -209.5t-191.5 -62.5q-230 0 -251 185q-3 26 -5 71.5t-2 81t-0.5 102t-0.5 90.5
q-2 41 -33 50q-20 7 -52 10zM376 778q9 6 21 6q9 -9 63 -53.5t76 -60.5q0 -4 -7.5 -15.5t-9.5 -11.5q-5 0 -60.5 22.5t-69.5 29.5q-4 2 -9 0q-17 -9 -66.5 -30.5t-53.5 -21.5t-10.5 11t-4.5 15q26 19 73.5 58t57.5 51z" />
    <glyph glyph-name="Udieresis" unicode="&#xdc;" horiz-adv-x="708" 
d="M14 572q-2 4 -1.5 17t2.5 17q15 0 68 -1.5t86 -1.5q36 0 88.5 1.5t69.5 1.5q3 -4 3 -17t-3 -17q-11 -1 -28 -4.5t-18 -3.5q-32 -8 -34 -55q-1 -24 -1 -214q0 -79 8 -127q20 -115 158 -115q28 0 51 6t45.5 22t36.5 49t18 81q4 53 4.5 151t-2.5 136q-2 30 -10.5 44.5
t-32.5 19.5q-26 7 -59 10q-2 4 -2 16.5t3 17.5q17 0 58.5 -1.5t65.5 -1.5q45 0 80.5 1.5t40.5 1.5q4 -4 4 -17t-4 -17q-36 -7 -42 -9q-19 -5 -26.5 -19t-9.5 -51q-2 -25 -8 -239q-6 -147 -73.5 -209.5t-191.5 -62.5q-230 0 -251 185q-3 26 -5 71.5t-2 81t-0.5 102t-0.5 90.5
q-2 41 -33 50q-20 7 -52 10zM360 718q0 -31 -25 -54q-5 -5 -29.5 -7t-31.5 2q-23 12 -30 40q-7 29 4 44q21 21 66 21q29 0 39 -12q7 -13 7 -34zM543 718q0 -31 -25 -54q-5 -5 -29.5 -7t-31.5 2q-22 11 -30 40q-7 29 4 44q21 21 65 21q28 0 40 -12q7 -13 7 -34z" />
    <glyph glyph-name="Yacute" unicode="&#xdd;" horiz-adv-x="578" 
d="M-23 573q-3 5 -2 17.5t4 15.5q15 0 62 -1.5t76 -1.5q99 0 153 3q3 -3 3.5 -17t-2.5 -17q-5 -1 -31 -7q-17 -5 -7 -29q13 -29 53 -108.5t52 -99.5q4 -2 7 0q27 47 60 112t41 90q6 26 -21 33q-19 5 -52 9q-2 6 -0.5 19t4.5 15q9 0 50.5 -1.5t70.5 -1.5q28 0 63.5 1.5
t48.5 1.5q3 -2 3 -16.5t-3 -17.5q-40 -7 -45 -9q-22 -8 -37 -20.5t-36 -45.5q-72 -120 -118 -212q-11 -23 -11 -48q0 -36 2 -138q1 -18 2.5 -27.5t9 -18.5t21.5 -12q14 -4 56 -11q2 -2 0.5 -16.5t-3.5 -17.5q-14 0 -74 2t-93 2q-45 0 -90.5 -2t-62.5 -2q-3 3 -2.5 17.5
t2.5 16.5q45 6 61 11q18 4 23.5 17.5t5.5 38.5q2 47 2 130q0 20 -13 51q-43 90 -113 212q-25 42 -39.5 56t-35.5 20q-28 6 -45 7zM416 796q10 0 36.5 -21.5t31.5 -32.5q1 -1 1 -5.5t-1 -5.5q-13 -12 -93.5 -52t-87.5 -40q-3 0 -12 11t-9 16q27 29 73.5 75t60.5 55z" />
    <glyph glyph-name="Thorn" unicode="&#xde;" horiz-adv-x="596" 
d="M27 31q40 5 53 9q26 8 28 54q2 38 2 225q0 162 -2 192q-2 25 -8 36.5t-24 16.5q-14 5 -48 8q-2 6 -0.5 18t3.5 17q7 0 58 -2t90 -2q36 0 85.5 2t63.5 2q2 -5 2 -17.5t-2 -17.5q-51 -10 -52 -10q-14 -4 -18 -13.5t-5 -33.5v-35q1 -6 6 -6q66 2 101 2q91 0 139 -33
q61 -45 61 -129q0 -104 -84 -152q-53 -32 -134 -32q-35 0 -51 4q-6 4 -6 22q-1 7 1 15q7 -1 25 -1q32 0 53 11q46 29 46 115q0 68 -31.5 102.5t-88.5 34.5q-21 0 -29 -4q-7 -7 -7 -14q-1 -31 -1 -190q0 -78 2 -134q2 -43 31 -49q11 -3 31 -6t28 -5q3 -5 2 -17t-3 -17
q-21 0 -70.5 1.5t-78.5 1.5t-90 -1.5t-78 -1.5q-2 5 -2 18t2 16z" />
    <glyph glyph-name="germandbls" unicode="&#xdf;" horiz-adv-x="539" 
d="M76 341l-54 3q0 28 8 36q26 4 47 19q0 141 101 217q66 48 132 48q73 0 116 -43t43 -103q0 -26 -16 -58q-13 -17 -69 -71q-13 -12 -13 -22q0 -5 14 -18.5t37.5 -32.5t33.5 -29q52 -50 52 -109q0 -111 -122 -175q-31 -15 -61 -15q-35 0 -52 15q-6 24 0 69q1 2 4.5 5.5
t4.5 2.5q53 -38 85 -38q42 0 42 50q0 43 -59 96q-12 11 -30.5 27t-32 27.5t-23.5 23.5q-4 5 -0.5 32t8.5 33q26 22 29 25q42 39 57 68t15 74q0 44 -27.5 84t-67.5 40q-43 0 -59 -60t-16 -202q0 -183 4 -287q1 -25 21 -33q10 -4 30 -9q3 -4 2 -17t-3 -17q-13 0 -55 1.5
t-69 1.5t-63 -1.5t-52 -1.5q-6 15 0 34q27 5 34 8q16 4 20 11.5t4 24.5v266z" />
    <glyph glyph-name="agrave" unicode="&#xe0;" horiz-adv-x="442" 
d="M250 258q0 32 -15 52q-23 31 -68 31q-37 0 -49 -14q-7 -7 -33 -59q-4 -3 -20.5 5t-15.5 12q0 7 8 34t13 31q37 27 84.5 45.5t72.5 18.5q77 0 119 -61q25 -37 25 -101q0 -24 -1 -78.5t-1 -74.5q0 -38 27 -38q16 0 33 5q2 -2 -0.5 -19.5t-4.5 -20.5q-19 -17 -50.5 -28
t-58.5 -11q-51 0 -61 31q-3 8 -5 17q-1 2 -4 1q-33 -22 -65 -35t-46 -13q-34 0 -61 24q-39 36 -39 99q0 10 5.5 31t11.5 29q16 10 95.5 33.5t94.5 29.5q6 1 8 11q1 6 1 13zM249 195q0 5 -3 5l-28.5 -9.5t-36.5 -13t-19 -9.5q-8 -8 -8 -33q0 -35 20 -54t45 -19q16 0 22 6
q6 4 6 18q2 31 2 109zM208 608q4 -9 23.5 -70t25.5 -85q-2 -3 -14.5 -9.5t-16.5 -5.5q-16 15 -61.5 70t-60.5 77q-2 9 5 14q9 4 50 7.5t49 1.5z" />
    <glyph glyph-name="aacute" unicode="&#xe1;" horiz-adv-x="442" 
d="M250 258q0 32 -15 52q-23 31 -68 31q-37 0 -49 -14q-7 -7 -33 -59q-4 -3 -20.5 5t-15.5 12q0 7 8 34t13 31q37 27 84.5 45.5t72.5 18.5q77 0 119 -61q25 -37 25 -101q0 -24 -1 -78.5t-1 -74.5q0 -38 27 -38q16 0 33 5q2 -2 -0.5 -19.5t-4.5 -20.5q-19 -17 -50.5 -28
t-58.5 -11q-51 0 -61 31q-3 8 -5 17q-1 2 -4 1q-33 -22 -65 -35t-46 -13q-34 0 -61 24q-39 36 -39 99q0 10 5.5 31t11.5 29q16 10 95.5 33.5t94.5 29.5q6 1 8 11q1 6 1 13zM249 195q0 5 -3 5l-28.5 -9.5t-36.5 -13t-19 -9.5q-8 -8 -8 -33q0 -35 20 -54t45 -19q16 0 22 6
q6 4 6 18q2 31 2 109zM232 612q8 4 49.5 6t50.5 -1q1 -1 2.5 -6.5t0.5 -7.5q-8 -15 -60.5 -78.5t-70.5 -80.5q-3 -2 -15.5 5.5t-13.5 11.5q49 134 57 151z" />
    <glyph glyph-name="acircumflex" unicode="&#xe2;" horiz-adv-x="442" 
d="M250 258q0 32 -15 52q-23 31 -68 31q-37 0 -49 -14q-7 -7 -33 -59q-4 -3 -20.5 5t-15.5 12q0 7 8 34t13 31q37 27 84.5 45.5t72.5 18.5q77 0 119 -61q25 -37 25 -101q0 -24 -1 -78.5t-1 -74.5q0 -38 27 -38q16 0 33 5q2 -2 -0.5 -19.5t-4.5 -20.5q-19 -17 -50.5 -28
t-58.5 -11q-51 0 -61 31q-3 8 -5 17q-1 2 -4 1q-33 -22 -65 -35t-46 -13q-34 0 -61 24q-39 36 -39 99q0 10 5.5 31t11.5 29q16 10 95.5 33.5t94.5 29.5q6 1 8 11q1 6 1 13zM249 195q0 5 -3 5l-28.5 -9.5t-36.5 -13t-19 -9.5q-8 -8 -8 -33q0 -35 20 -54t45 -19q16 0 22 6
q6 4 6 18q2 31 2 109zM211 535q-41 -70 -56 -79q-7 -4 -23 -7.5t-24 -2.5q-6 3 -3 8q17 23 50 79t43 80q1 3 18.5 8.5t21.5 5.5q15 -35 47.5 -90t47.5 -74q-2 -4 -23 -12t-30 -8q-7 2 -28 33.5t-35 58.5q-3 1 -6 0z" />
    <glyph glyph-name="atilde" unicode="&#xe3;" horiz-adv-x="442" 
d="M250 258q0 32 -15 52q-23 31 -68 31q-37 0 -49 -14q-7 -7 -33 -59q-4 -3 -20.5 5t-15.5 12q0 7 8 34t13 31q37 27 84.5 45.5t72.5 18.5q77 0 119 -61q25 -37 25 -101q0 -24 -1 -78.5t-1 -74.5q0 -38 27 -38q16 0 33 5q2 -2 -0.5 -19.5t-4.5 -20.5q-19 -17 -50.5 -28
t-58.5 -11q-51 0 -61 31q-3 8 -5 17q-1 2 -4 1q-33 -22 -65 -35t-46 -13q-34 0 -61 24q-39 36 -39 99q0 10 5.5 31t11.5 29q16 10 95.5 33.5t94.5 29.5q6 1 8 11q1 6 1 13zM249 195q0 5 -3 5l-28.5 -9.5t-36.5 -13t-19 -9.5q-8 -8 -8 -33q0 -35 20 -54t45 -19q16 0 22 6
q6 4 6 18q2 31 2 109zM283 541q36 0 70 33q3 1 6 -4q4 -17 -3 -28q-11 -23 -41.5 -45.5t-59.5 -22.5q-23 0 -68 16q-20 9 -42 9q-29 0 -64 -33q-1 -1 -2 0t-3 2.5t-2 3.5q-1 5 1 17t4 14q10 17 40 40t51 23q24 0 62 -13q36 -12 51 -12z" />
    <glyph glyph-name="adieresis" unicode="&#xe4;" horiz-adv-x="442" 
d="M250 258q0 32 -15 52q-23 31 -68 31q-37 0 -49 -14q-7 -7 -33 -59q-4 -3 -20.5 5t-15.5 12q0 7 8 34t13 31q37 27 84.5 45.5t72.5 18.5q77 0 119 -61q25 -37 25 -101q0 -24 -1 -78.5t-1 -74.5q0 -38 27 -38q16 0 33 5q2 -2 -0.5 -19.5t-4.5 -20.5q-19 -17 -50.5 -28
t-58.5 -11q-51 0 -61 31q-3 8 -5 17q-1 2 -4 1q-33 -22 -65 -35t-46 -13q-34 0 -61 24q-39 36 -39 99q0 10 5.5 31t11.5 29q16 10 95.5 33.5t94.5 29.5q6 1 8 11q1 6 1 13zM249 195q0 5 -3 5l-28.5 -9.5t-36.5 -13t-19 -9.5q-8 -8 -8 -33q0 -35 20 -54t45 -19q16 0 22 6
q6 4 6 18q2 31 2 109zM186 539q0 -28 -24 -52q-5 -5 -29 -7t-31 1q-22 13 -29 39q-4 34 4 43q22 22 64 22q28 0 38 -13q7 -13 7 -33zM365 539q0 -30 -24 -52q-5 -5 -29 -7t-31 1q-20 13 -29 39q-4 32 4 43q9 9 28.5 15.5t35.5 6.5q26 0 39 -13q6 -11 6 -33z" />
    <glyph glyph-name="aring" unicode="&#xe5;" horiz-adv-x="442" 
d="M250 258q0 32 -15 52q-23 31 -68 31q-37 0 -49 -14q-7 -7 -33 -59q-4 -3 -20.5 5t-15.5 12q0 7 8 34t13 31q37 27 84.5 45.5t72.5 18.5q77 0 119 -61q25 -37 25 -101q0 -24 -1 -78.5t-1 -74.5q0 -38 27 -38q16 0 33 5q2 -2 -0.5 -19.5t-4.5 -20.5q-19 -17 -50.5 -28
t-58.5 -11q-51 0 -61 31q-3 8 -5 17q-1 2 -4 1q-33 -22 -65 -35t-46 -13q-34 0 -61 24q-39 36 -39 99q0 10 5.5 31t11.5 29q16 10 95.5 33.5t94.5 29.5q6 1 8 11q1 6 1 13zM249 195q0 5 -3 5l-28.5 -9.5t-36.5 -13t-19 -9.5q-8 -8 -8 -33q0 -35 20 -54t45 -19q16 0 22 6
q6 4 6 18q2 31 2 109zM222 618q37 0 57.5 -24t20.5 -59q0 -39 -23.5 -62t-58.5 -23q-30 0 -55.5 20t-25.5 62q0 38 23 62t62 24zM218 573q-21 0 -32 -10.5t-11 -28.5q0 -17 13.5 -27.5t32.5 -10.5q17 0 30 10t13 25q0 42 -46 42z" />
    <glyph glyph-name="ae" unicode="&#xe6;" horiz-adv-x="654" 
d="M143 -11q-41 0 -69 26q-37 37 -37 95q0 35 14 54q18 11 104.5 34.5t87.5 23.5q7 3 7 11q1 6 1 20q0 33 -15 56q-27 36 -69 36q-34 0 -48 -14q-3 -3 -32 -61q-3 -2 -20 4.5t-17 11.5q1 8 9 34.5t12 30.5q36 27 81.5 45t71.5 18q67 0 107 -47q2 -2 5 0q73 47 128 47
q37 0 65 -13.5t43 -34t22 -37t10 -32.5q7 -11 18 -16q0 -16 -6 -22q-43 -14 -238 -52q-5 -2 -5 -11q4 -49 40 -85q35 -35 90 -35q63 0 119 44q3 -2 4.5 -15.5t-0.5 -17.5q-31 -43 -83 -71t-105 -28q-98 0 -148 66q-2 4 -6 0q-87 -65 -141 -65zM251 182q0 5 -5 5
q-10 -3 -30 -8t-33.5 -9t-18.5 -8q-8 -8 -8 -27q0 -33 19 -51t45 -18q25 0 48 16q6 3 4 9q-21 46 -21 91zM422 370q-27 0 -42.5 -32.5t-11.5 -88.5q0 -1 2 -4t5 -2q51 8 111 22q4 1 7 9q-3 37 -23.5 66.5t-47.5 29.5z" />
    <glyph glyph-name="ccedilla" unicode="&#xe7;" horiz-adv-x="429" 
d="M406 75q-52 -67 -135 -83l-22 -28q30 -15 45 -29q24 -21 24 -51q0 -42 -41.5 -70.5t-72.5 -28.5q-38 0 -58 29q-1 4 1 14.5t4 12.5q32 -16 61 -16q38 0 38 29q0 34 -72 57q-1 6 1 10q32 42 53 67h-4q-96 1 -149 69q-43 53 -43 140q0 50 27 99t74 75q27 17 70.5 30
t78.5 13q50 0 86 -13q29 -15 35 -29q4 -9 0 -20q-6 -15 -22 -35t-25 -25q-2 -1 -8 -0.5t-7 1.5q-2 2 -14 16t-20 21t-21 18t-26.5 16t-27.5 5q-34 0 -54.5 -33t-20.5 -90q0 -68 31 -114q38 -53 108 -53q59 0 107 40q5 -2 6 -7q2 -6 -0.5 -19t-6.5 -18z" />
    <glyph glyph-name="egrave" unicode="&#xe8;" horiz-adv-x="448" 
d="M414 119q5 -5 5 -7q1 -9 -5 -33q-33 -41 -84 -66t-100 -25q-84 0 -134 48q-60 57 -60 164q0 59 26 106t68 74q57 34 120 34q52 0 88.5 -26t51 -56t19.5 -63q1 -9 15 -14q1 -2 -1.5 -14t-4.5 -13q-38 -13 -248 -22q-4 -2 -4 -10q4 -48 38 -82q35 -34 95 -34q64 0 115 39z
M220 374q-25 0 -40.5 -32.5t-15.5 -83.5q0 -6 6 -6q80 -3 107 3q6 2 6 9q-2 50 -18.5 80t-44.5 30zM228 615q4 -9 23.5 -70t25.5 -85q-2 -3 -14.5 -9.5t-16.5 -5.5q-16 15 -61.5 70t-60.5 77q-2 9 5 14q9 4 50 7.5t49 1.5z" />
    <glyph glyph-name="eacute" unicode="&#xe9;" horiz-adv-x="448" 
d="M414 119q5 -5 5 -7q1 -9 -5 -33q-33 -41 -84 -66t-100 -25q-84 0 -134 48q-60 57 -60 164q0 59 26 106t68 74q57 34 120 34q52 0 88.5 -26t51 -56t19.5 -63q1 -9 15 -14q1 -2 -1.5 -14t-4.5 -13q-38 -13 -248 -22q-4 -2 -4 -10q4 -48 38 -82q35 -34 95 -34q64 0 115 39z
M220 374q-25 0 -40.5 -32.5t-15.5 -83.5q0 -6 6 -6q80 -3 107 3q6 2 6 9q-2 50 -18.5 80t-44.5 30zM248 609q8 4 49.5 6t50.5 -1q1 -1 2.5 -6.5t0.5 -7.5q-8 -15 -60.5 -78.5t-70.5 -80.5q-3 -2 -15.5 5.5t-13.5 11.5q49 134 57 151z" />
    <glyph glyph-name="ecircumflex" unicode="&#xea;" horiz-adv-x="448" 
d="M414 119q5 -5 5 -7q1 -9 -5 -33q-33 -41 -84 -66t-100 -25q-84 0 -134 48q-60 57 -60 164q0 59 26 106t68 74q57 34 120 34q52 0 88.5 -26t51 -56t19.5 -63q1 -9 15 -14q1 -2 -1.5 -14t-4.5 -13q-38 -13 -248 -22q-4 -2 -4 -10q4 -48 38 -82q35 -34 95 -34q64 0 115 39z
M220 374q-25 0 -40.5 -32.5t-15.5 -83.5q0 -6 6 -6q80 -3 107 3q6 2 6 9q-2 50 -18.5 80t-44.5 30zM229 535q-41 -70 -56 -79q-7 -4 -23 -7.5t-24 -2.5q-6 3 -3 8q17 23 50 79t43 80q1 3 18.5 8.5t21.5 5.5q15 -35 47.5 -90t47.5 -74q-2 -4 -23 -12t-30 -8q-7 2 -28 33.5
t-35 58.5q-3 1 -6 0z" />
    <glyph glyph-name="edieresis" unicode="&#xeb;" horiz-adv-x="448" 
d="M414 119q5 -5 5 -7q1 -9 -5 -33q-33 -41 -84 -66t-100 -25q-84 0 -134 48q-60 57 -60 164q0 59 26 106t68 74q57 34 120 34q52 0 88.5 -26t51 -56t19.5 -63q1 -9 15 -14q1 -2 -1.5 -14t-4.5 -13q-38 -13 -248 -22q-4 -2 -4 -10q4 -48 38 -82q35 -34 95 -34q64 0 115 39z
M220 374q-25 0 -40.5 -32.5t-15.5 -83.5q0 -6 6 -6q80 -3 107 3q6 2 6 9q-2 50 -18.5 80t-44.5 30zM207 539q0 -28 -24 -52q-5 -5 -29 -7t-31 1q-22 13 -29 39q-4 34 4 43q22 22 64 22q28 0 38 -13q7 -13 7 -33zM386 539q0 -30 -24 -52q-5 -5 -29 -7t-31 1q-20 13 -29 39
q-4 32 4 43q9 9 28.5 15.5t35.5 6.5q26 0 39 -13q6 -11 6 -33z" />
    <glyph glyph-name="igrave" unicode="&#xec;" horiz-adv-x="275" 
d="M263 31q3 -3 1 -16.5t-6 -17.5q-4 0 -44 1.5t-77 1.5q-32 0 -70 -1.5t-47 -1.5q-2 4 -2.5 17.5t2.5 16.5q27 5 37 9q16 4 17 39q1 22 1 132q0 74 -1 91q0 18 -7 25q-10 11 -40 23q-2 4 -1 16t3 15q23 0 83 10.5t94 24.5q0 -19 -0.5 -79.5t-0.5 -90.5q0 -118 1 -164
q0 -34 18 -42zM125 608q4 -9 23.5 -70t25.5 -85q-2 -3 -14.5 -9.5t-16.5 -5.5q-16 15 -61.5 70t-60.5 77q-2 9 5 14q9 4 50 7.5t49 1.5z" />
    <glyph glyph-name="iacute" unicode="&#xed;" horiz-adv-x="275" 
d="M263 31q3 -3 1 -16.5t-6 -17.5q-4 0 -44 1.5t-77 1.5q-32 0 -70 -1.5t-47 -1.5q-2 4 -2.5 17.5t2.5 16.5q27 5 37 9q16 4 17 39q1 22 1 132q0 74 -1 91q0 18 -7 25q-10 11 -40 23q-2 4 -1 16t3 15q23 0 83 10.5t94 24.5q0 -19 -0.5 -79.5t-0.5 -90.5q0 -118 1 -164
q0 -34 18 -42zM153 609q8 4 49.5 6t50.5 -1q1 -1 2.5 -6.5t0.5 -7.5q-8 -15 -60.5 -78.5t-70.5 -80.5q-3 -2 -15.5 5.5t-13.5 11.5q49 134 57 151z" />
    <glyph glyph-name="icircumflex" unicode="&#xee;" horiz-adv-x="275" 
d="M263 31q3 -3 1 -16.5t-6 -17.5q-4 0 -44 1.5t-77 1.5q-32 0 -70 -1.5t-47 -1.5q-2 4 -2.5 17.5t2.5 16.5q27 5 37 9q16 4 17 39q1 22 1 132q0 74 -1 91q0 18 -7 25q-10 11 -40 23q-2 4 -1 16t3 15q23 0 83 10.5t94 24.5q0 -19 -0.5 -79.5t-0.5 -90.5q0 -118 1 -164
q0 -34 18 -42zM129 535q-41 -70 -56 -79q-7 -4 -23 -7.5t-24 -2.5q-6 3 -3 8q17 23 50 79t43 80q1 3 18.5 8.5t21.5 5.5q15 -35 47.5 -90t47.5 -74q-2 -4 -23 -12t-30 -8q-7 2 -28 33.5t-35 58.5q-3 1 -6 0z" />
    <glyph glyph-name="idieresis" unicode="&#xef;" horiz-adv-x="275" 
d="M263 31q3 -3 1 -16.5t-6 -17.5q-4 0 -44 1.5t-77 1.5q-32 0 -70 -1.5t-47 -1.5q-2 4 -2.5 17.5t2.5 16.5q27 5 37 9q16 4 17 39q1 22 1 132q0 74 -1 91q0 18 -7 25q-10 11 -40 23q-2 4 -1 16t3 15q23 0 83 10.5t94 24.5q0 -19 -0.5 -79.5t-0.5 -90.5q0 -118 1 -164
q0 -34 18 -42zM103 539q0 -28 -24 -52q-5 -5 -29 -7t-31 1q-22 13 -29 39q-4 34 4 43q22 22 64 22q28 0 38 -13q7 -13 7 -33zM282 539q0 -30 -24 -52q-5 -5 -29 -7t-31 1q-20 13 -29 39q-4 32 4 43q9 9 28.5 15.5t35.5 6.5q26 0 39 -13q6 -11 6 -33z" />
    <glyph glyph-name="eth" unicode="&#xf0;" horiz-adv-x="516" 
d="M270 27q69 0 69 167q0 96 -17 126q-27 49 -75 49q-31 0 -49.5 -36t-18.5 -105q0 -91 24 -146t67 -55zM447 571l-84 -38q53 -51 82.5 -124.5t29.5 -152.5q0 -176 -117 -240q-51 -28 -113 -28q-104 0 -156.5 62t-52.5 144q0 118 89 175q22 15 60 27t74 12q35 0 53 -6
q-16 51 -46 92l-129 -51q-2 0 -4.5 8.5t-2 19t3.5 12.5l101 45q-69 72 -165 101q0 5 6 18t8 15q45 -1 112.5 -27t129.5 -70l116 48q7 2 6 -35q0 -7 -1 -7z" />
    <glyph glyph-name="ntilde" unicode="&#xf1;" horiz-adv-x="536" 
d="M21 31q9 1 31 7q18 4 21 39q2 60 2 153q0 68 -2 78q-5 22 -47 37q0 22 5 30q103 12 168 44q4 -4 4 -8v-55q0 -2 2 -3t3 0q77 61 128 61q68 0 103 -54q27 -40 27 -118v-177q0 -11 8 -17q18 -13 48 -17q2 -4 0.5 -17t-5.5 -17q-1 0 -37.5 1.5t-77.5 1.5q-9 0 -111 -3
q-2 5 -2.5 18t2.5 16l26 7q15 5 17 28q2 21 2 102.5t-5 108.5q-7 31 -30 46q-16 11 -43 11q-24 0 -46 -13q-8 -5 -8 -16q0 -31 0.5 -117.5t1.5 -114.5q1 -30 22 -36q7 -2 28 -6q2 -3 1 -16.5t-3 -17.5q-117 3 -119 3q-47 0 -113 -3q-2 5 -2.5 17.5t1.5 16.5zM335 541
q36 0 70 33q3 1 6 -4q4 -17 -3 -28q-11 -23 -41.5 -45.5t-59.5 -22.5q-23 0 -68 16q-20 9 -42 9q-29 0 -64 -33q-1 -1 -2 0t-3 2.5t-2 3.5q-1 5 1 17t4 14q10 17 40 40t51 23q24 0 62 -13q36 -12 51 -12z" />
    <glyph glyph-name="ograve" unicode="&#xf2;" horiz-adv-x="520" 
d="M267 414q102 0 159.5 -59t57.5 -150q0 -122 -91 -179q-61 -38 -137 -38q-109 0 -164.5 60t-55.5 155q0 113 90 171q62 40 141 40zM244 374q-13 0 -27 -9q-39 -29 -39 -132q0 -100 27 -153t69 -53q20 0 31 11q35 31 35 139q0 91 -25 144t-71 53zM248 611q4 -9 23.5 -70
t25.5 -85q-2 -3 -14.5 -9.5t-16.5 -5.5q-16 15 -61.5 70t-60.5 77q-2 9 5 14q9 4 50 7.5t49 1.5z" />
    <glyph glyph-name="oacute" unicode="&#xf3;" horiz-adv-x="520" 
d="M267 414q102 0 159.5 -59t57.5 -150q0 -122 -91 -179q-61 -38 -137 -38q-109 0 -164.5 60t-55.5 155q0 113 90 171q62 40 141 40zM244 374q-13 0 -27 -9q-39 -29 -39 -132q0 -100 27 -153t69 -53q20 0 31 11q35 31 35 139q0 91 -25 144t-71 53zM269 609q8 4 49.5 6
t50.5 -1q1 -1 2.5 -6.5t0.5 -7.5q-8 -15 -60.5 -78.5t-70.5 -80.5q-3 -2 -15.5 5.5t-13.5 11.5q49 134 57 151z" />
    <glyph glyph-name="ocircumflex" unicode="&#xf4;" horiz-adv-x="520" 
d="M267 414q102 0 159.5 -59t57.5 -150q0 -122 -91 -179q-61 -38 -137 -38q-109 0 -164.5 60t-55.5 155q0 113 90 171q62 40 141 40zM244 374q-13 0 -27 -9q-39 -29 -39 -132q0 -100 27 -153t69 -53q20 0 31 11q35 31 35 139q0 91 -25 144t-71 53zM250 535q-41 -70 -56 -79
q-7 -4 -23 -7.5t-24 -2.5q-6 3 -3 8q16 23 49.5 79t43.5 80q1 3 18.5 8.5t21.5 5.5q15 -35 47.5 -90t47.5 -74q-2 -4 -23 -12t-30 -8q-7 2 -28 33.5t-35 58.5q-3 1 -6 0z" />
    <glyph glyph-name="otilde" unicode="&#xf5;" horiz-adv-x="520" 
d="M267 414q102 0 159.5 -59t57.5 -150q0 -122 -91 -179q-61 -38 -137 -38q-109 0 -164.5 60t-55.5 155q0 113 90 171q62 40 141 40zM244 374q-13 0 -27 -9q-39 -29 -39 -132q0 -100 27 -153t69 -53q20 0 31 11q35 31 35 139q0 91 -25 144t-71 53zM327 541q36 0 70 33
q3 1 6 -4q4 -17 -3 -28q-11 -23 -41.5 -45.5t-59.5 -22.5q-23 0 -68 16q-20 9 -42 9q-29 0 -64 -33q-1 -1 -2 0t-3 2.5t-2 3.5q-1 5 1 17t4 14q10 17 40 40t51 23q24 0 62 -13q36 -12 51 -12z" />
    <glyph glyph-name="odieresis" unicode="&#xf6;" horiz-adv-x="520" 
d="M267 414q102 0 159.5 -59t57.5 -150q0 -122 -91 -179q-61 -38 -137 -38q-109 0 -164.5 60t-55.5 155q0 113 90 171q62 40 141 40zM244 374q-13 0 -27 -9q-39 -29 -39 -132q0 -100 27 -153t69 -53q20 0 31 11q35 31 35 139q0 91 -25 144t-71 53zM226 539q0 -28 -24 -52
q-5 -5 -29 -7t-31 1q-22 13 -29 39q-4 34 4 43q22 22 64 22q28 0 38 -13q7 -13 7 -33zM405 539q0 -30 -24 -52q-5 -5 -29 -7t-31 1q-20 13 -29 39q-4 32 4 43q9 9 28.5 15.5t35.5 6.5q26 0 39 -13q6 -11 6 -33z" />
    <glyph glyph-name="divide" unicode="&#xf7;" horiz-adv-x="547" 
d="M327 412q0 -32 -28 -64q-5 -4 -27 -6t-33 4q-21 16 -24 46q-1 4 3 20t6 18q23 17 58 17q30 0 37 -9q8 -13 8 -26zM486 208l-442 -3q-3 1 -3 10q2 30 15 60q7 -2 114 -2h331q3 -1 3 -10q0 -7 -7 -30.5t-11 -24.5zM327 106q0 -37 -20 -57q-4 -4 -28 -7.5t-35 2.5
q-26 21 -29 48q-1 4 3 19t6 17q20 18 58 18q30 0 37 -9q8 -16 8 -31z" />
    <glyph glyph-name="oslash" unicode="&#xf8;" horiz-adv-x="520" 
d="M267 414q53 0 96 -17l29 45q1 1 13.5 -8.5t13.5 -11.5l-26 -41q91 -56 91 -176q0 -122 -91 -179q-61 -38 -137 -38q-61 0 -109 21l-30 -44q-2 0 -14 8.5t-13 10.5l28 42q-82 57 -82 177q0 113 90 171q62 40 141 40zM274 27q73 0 73 150q0 63 -14 114l-135 -204
q28 -60 76 -60zM246 374q-74 0 -74 -141q0 -68 12 -107l132 202q-24 46 -70 46z" />
    <glyph glyph-name="ugrave" unicode="&#xf9;" horiz-adv-x="521" 
d="M13 357q-2 6 -0.5 18.5t4.5 16.5q145 6 186 16q-6 -45 -6 -181q0 -96 5 -113q11 -41 62 -41q28 0 48 16q7 7 7 15q4 34 0 212q0 26 -17 31q-17 6 -52 11q-5 24 3 34q107 0 200 15q-2 -18 -2 -104v-201q2 -31 18 -34q13 -1 41 -1q0 -27 -5 -35q-28 -13 -92.5 -29
t-81.5 -16q-3 2 -6 7q-5 18 -5 55q0 2 -2 2.5t-3 -0.5q-74 -61 -133 -61q-57 0 -85 34t-29 91v98.5t-1 98.5q-1 12 -2 18t-5 11.5t-12 7.5q-26 7 -35 8zM249 608q4 -9 23.5 -70t25.5 -85q-2 -3 -14.5 -9.5t-16.5 -5.5q-16 15 -61.5 70t-60.5 77q-2 9 5 14q9 4 50 7.5t49 1.5
z" />
    <glyph glyph-name="uacute" unicode="&#xfa;" horiz-adv-x="521" 
d="M13 357q-2 6 -0.5 18.5t4.5 16.5q145 6 186 16q-6 -45 -6 -181q0 -96 5 -113q11 -41 62 -41q28 0 48 16q7 7 7 15q4 34 0 212q0 26 -17 31q-17 6 -52 11q-5 24 3 34q107 0 200 15q-2 -18 -2 -104v-201q2 -31 18 -34q13 -1 41 -1q0 -27 -5 -35q-28 -13 -92.5 -29
t-81.5 -16q-3 2 -6 7q-5 18 -5 55q0 2 -2 2.5t-3 -0.5q-74 -61 -133 -61q-57 0 -85 34t-29 91v98.5t-1 98.5q-1 12 -2 18t-5 11.5t-12 7.5q-26 7 -35 8zM277 609q8 4 49.5 6t50.5 -1q1 -1 2.5 -6.5t0.5 -7.5q-8 -15 -60.5 -78.5t-70.5 -80.5q-3 -2 -15.5 5.5t-13.5 11.5
q49 134 57 151z" />
    <glyph glyph-name="ucircumflex" unicode="&#xfb;" horiz-adv-x="521" 
d="M13 357q-2 6 -0.5 18.5t4.5 16.5q145 6 186 16q-6 -45 -6 -181q0 -96 5 -113q11 -41 62 -41q28 0 48 16q7 7 7 15q4 34 0 212q0 26 -17 31q-17 6 -52 11q-5 24 3 34q107 0 200 15q-2 -18 -2 -104v-201q2 -31 18 -34q13 -1 41 -1q0 -27 -5 -35q-28 -13 -92.5 -29
t-81.5 -16q-3 2 -6 7q-5 18 -5 55q0 2 -2 2.5t-3 -0.5q-74 -61 -133 -61q-57 0 -85 34t-29 91v98.5t-1 98.5q-1 12 -2 18t-5 11.5t-12 7.5q-26 7 -35 8zM247 535q-41 -70 -56 -79q-7 -4 -23 -7.5t-24 -2.5q-6 3 -3 8q17 23 50 79t43 80q1 3 18.5 8.5t21.5 5.5
q15 -35 47.5 -90t47.5 -74q-2 -4 -23 -12t-30 -8q-7 2 -28 33.5t-35 58.5q-3 1 -6 0z" />
    <glyph glyph-name="udieresis" unicode="&#xfc;" horiz-adv-x="521" 
d="M13 357q-2 6 -0.5 18.5t4.5 16.5q145 6 186 16q-6 -45 -6 -181q0 -96 5 -113q11 -41 62 -41q28 0 48 16q7 7 7 15q4 34 0 212q0 26 -17 31q-17 6 -52 11q-5 24 3 34q107 0 200 15q-2 -18 -2 -104v-201q2 -31 18 -34q13 -1 41 -1q0 -27 -5 -35q-28 -13 -92.5 -29
t-81.5 -16q-3 2 -6 7q-5 18 -5 55q0 2 -2 2.5t-3 -0.5q-74 -61 -133 -61q-57 0 -85 34t-29 91v98.5t-1 98.5q-1 12 -2 18t-5 11.5t-12 7.5q-26 7 -35 8zM223 539q0 -28 -24 -52q-5 -5 -29 -7t-31 1q-22 13 -29 39q-4 34 4 43q22 22 64 22q28 0 38 -13q7 -13 7 -33zM402 539
q0 -30 -24 -52q-5 -5 -29 -7t-31 1q-20 13 -29 39q-4 32 4 43q9 9 28.5 15.5t35.5 6.5q26 0 39 -13q6 -11 6 -33z" />
    <glyph glyph-name="yacute" unicode="&#xfd;" horiz-adv-x="454" 
d="M-13 369q0 24 6 34l45 -1q45 -2 84 -2q29 0 116 3q2 -4 2.5 -16.5t-0.5 -17.5q-24 -6 -30 -9q-10 -5 -7 -19q21 -66 75 -192h4q52 114 62 176q4 26 -17 33q-15 7 -45 11q0 27 5 34q9 0 39.5 -1.5t51.5 -1.5q7 0 97 3q5 -16 1 -34q-22 -4 -37 -11q-25 -11 -43 -59
q-76 -202 -220 -465l-35 -64l-12 -4q-14 1 -38 10.5t-31 20.5q-4 13 1 21q105 120 140 189q-4 6 -14 26l-98 232q-22 54 -34 71t-32 24q-3 1 -36 9zM281 609q8 4 49.5 6t50.5 -1q1 -1 2.5 -6.5t0.5 -7.5q-8 -15 -60.5 -78.5t-70.5 -80.5q-3 -2 -15.5 5.5t-13.5 11.5
q49 134 57 151z" />
    <glyph glyph-name="thorn" unicode="&#xfe;" horiz-adv-x="519" 
d="M-5 -202q30 7 46 12q20 8 22 48q3 52 3 409q-2 273 -5 294q-3 22 -23 27q-8 2 -38 7q-1 3 -0.5 16.5t2.5 16.5q41 2 104 13t96 23q6 -3 6 -16q-13 -20 -13 -126v-146q1 -4 5 -2q88 40 125 40q68 0 111 -48q47 -51 47 -133q0 -113 -89 -182q-26 -21 -79.5 -40.5
t-92.5 -22.5h-27q0 -103 1 -129q2 -18 8 -27t21 -13q7 -2 58 -9q3 -23 -6 -35h-25q-138 0 -255 -13q-2 5 -3 18.5t1 17.5zM236 345q-24 0 -34 -7q-6 -2 -6 -13q-3 -166 1 -221q2 -28 16 -41q24 -23 60 -23q30 0 50 27q28 35 28 111q0 79 -31 122q-32 45 -84 45z" />
    <glyph glyph-name="ydieresis" unicode="&#xff;" horiz-adv-x="454" 
d="M-13 369q0 24 6 34l45 -1q45 -2 84 -2q29 0 116 3q2 -4 2.5 -16.5t-0.5 -17.5q-24 -6 -30 -9q-10 -5 -7 -19q21 -66 75 -192h4q52 114 62 176q4 26 -17 33q-15 7 -45 11q0 27 5 34q9 0 39.5 -1.5t51.5 -1.5q7 0 97 3q5 -16 1 -34q-22 -4 -37 -11q-25 -11 -43 -59
q-76 -202 -220 -465l-35 -64l-12 -4q-14 1 -38 10.5t-31 20.5q-4 13 1 21q105 120 140 189q-4 6 -14 26l-98 232q-22 54 -34 71t-32 24q-3 1 -36 9zM218 539q0 -28 -24 -52q-5 -5 -29 -7t-31 1q-22 13 -29 39q-4 34 4 43q22 22 64 22q28 0 38 -13q7 -13 7 -33zM397 539
q0 -30 -24 -52q-5 -5 -29 -7t-31 1q-20 13 -29 39q-4 32 4 43q9 9 28.5 15.5t35.5 6.5q26 0 39 -13q6 -11 6 -33z" />
    <glyph glyph-name="uni0100" unicode="&#x100;" horiz-adv-x="627" 
d="M-20 31q53 8 71.5 21.5t37.5 58.5q77 182 161 424q17 42 20 70q30 -2 52 -2t50 2l17 -58q4 -11 66 -185.5t82 -227.5q25 -64 41.5 -79t71.5 -24q2 -3 0.5 -17t-4.5 -17q-6 0 -53.5 1.5t-92.5 1.5q-48 0 -94 -1.5t-59 -1.5q-2 5 -2 18t2 16q40 8 49 14q14 8 10 19
q-14 56 -46 137q-7 7 -10 7h-76q-66 0 -80 -1q-6 0 -11 -9q-38 -110 -38 -124q2 -28 28 -33q22 -5 49 -10q2 -3 0.5 -17t-3.5 -17q-11 0 -52 1.5t-74 1.5q-19 0 -57.5 -1.5t-55.5 -1.5q-2 4 -2.5 17t2.5 17zM275 459h-4q-11 -31 -33.5 -99t-28.5 -86q-2 -7 2 -7q11 -1 57 -1
q57 0 67 1q3 0 3 5q-39 122 -63 187zM209 727q20 -2 60 -2h187q0 -11 -9 -37.5t-12 -27.5q-16 -3 -208 -3l-38 2q1 8 9.5 36.5t10.5 31.5z" />
    <glyph glyph-name="uni0101" unicode="&#x101;" horiz-adv-x="442" 
d="M250 258q0 32 -15 52q-23 31 -68 31q-37 0 -49 -14q-7 -7 -33 -59q-4 -3 -20.5 5t-15.5 12q0 7 8 34t13 31q37 27 84.5 45.5t72.5 18.5q77 0 119 -61q25 -37 25 -101q0 -24 -1 -78.5t-1 -74.5q0 -38 27 -38q16 0 33 5q2 -2 -0.5 -19.5t-4.5 -20.5q-19 -17 -50.5 -28
t-58.5 -11q-51 0 -61 31q-3 8 -5 17q-1 2 -4 1q-33 -22 -65 -35t-46 -13q-34 0 -61 24q-39 36 -39 99q0 10 5.5 31t11.5 29q16 10 95.5 33.5t94.5 29.5q6 1 8 11q1 6 1 13zM249 195q0 5 -3 5l-28.5 -9.5t-36.5 -13t-19 -9.5q-8 -8 -8 -33q0 -35 20 -54t45 -19q16 0 22 6
q6 4 6 18q2 31 2 109zM117 556q18 -2 48 -2h175q0 -11 -7 -38t-10 -28q-14 -3 -188 -3q-29 0 -35 2q1 8 8 37.5t9 31.5z" />
    <glyph glyph-name="uni0102" unicode="&#x102;" horiz-adv-x="627" 
d="M-20 31q53 8 71.5 21.5t37.5 58.5q77 182 161 424q17 42 20 70q30 -2 52 -2t50 2l17 -58q4 -11 66 -185.5t82 -227.5q25 -64 41.5 -79t71.5 -24q2 -3 0.5 -17t-4.5 -17q-6 0 -53.5 1.5t-92.5 1.5q-48 0 -94 -1.5t-59 -1.5q-2 5 -2 18t2 16q40 8 49 14q14 8 10 19
q-14 56 -46 137q-7 7 -10 7h-76q-66 0 -80 -1q-6 0 -11 -9q-38 -110 -38 -124q2 -28 28 -33q22 -5 49 -10q2 -3 0.5 -17t-3.5 -17q-11 0 -52 1.5t-74 1.5q-19 0 -57.5 -1.5t-55.5 -1.5q-2 4 -2.5 17t2.5 17zM275 459h-4q-11 -31 -33.5 -99t-28.5 -86q-2 -7 2 -7q11 -1 57 -1
q57 0 67 1q3 0 3 5q-39 122 -63 187zM336 701q52 0 90 46q2 2 14 8.5t15 6.5q9 0 8 -6q-15 -48 -57.5 -82.5t-97.5 -34.5q-52 0 -83.5 22.5t-31.5 55.5q0 9 11 24t21 21q2 1 7 0.5t6 -2.5q11 -30 33.5 -44.5t64.5 -14.5z" />
    <glyph glyph-name="uni0103" unicode="&#x103;" horiz-adv-x="442" 
d="M250 258q0 32 -15 52q-23 31 -68 31q-37 0 -49 -14q-7 -7 -33 -59q-4 -3 -20.5 5t-15.5 12q0 7 8 34t13 31q37 27 84.5 45.5t72.5 18.5q77 0 119 -61q25 -37 25 -101q0 -24 -1 -78.5t-1 -74.5q0 -38 27 -38q16 0 33 5q2 -2 -0.5 -19.5t-4.5 -20.5q-19 -17 -50.5 -28
t-58.5 -11q-51 0 -61 31q-3 8 -5 17q-1 2 -4 1q-33 -22 -65 -35t-46 -13q-34 0 -61 24q-39 36 -39 99q0 10 5.5 31t11.5 29q16 10 95.5 33.5t94.5 29.5q6 1 8 11q1 6 1 13zM249 195q0 5 -3 5l-28.5 -9.5t-36.5 -13t-19 -9.5q-8 -8 -8 -33q0 -35 20 -54t45 -19q16 0 22 6
q6 4 6 18q2 31 2 109zM235 525q53 0 87 52q2 2 13 9t13 7q8 0 8 -7q-11 -54 -50 -90.5t-97 -36.5q-46 0 -77.5 24.5t-31.5 62.5q0 10 13.5 25t27.5 23q1 1 6 0.5t6 -2.5q12 -67 82 -67z" />
    <glyph glyph-name="uni0104" unicode="&#x104;" horiz-adv-x="627" 
d="M459 -229q-32 0 -57 19t-25 61q0 66 111 149q-42 0 -85 -1.5t-56 -1.5q-2 5 -2 18t2 16q39 7 49 14q14 8 10 19q-14 56 -46 137q-7 7 -10 7h-76q-66 0 -80 -1q-6 0 -11 -9q-38 -110 -38 -124q2 -28 28 -33q18 -5 49 -10q2 -3 0.5 -16.5t-3.5 -17.5q-11 0 -52 1.5t-74 1.5
q-19 0 -57.5 -1.5t-55.5 -1.5q-2 4 -2.5 17t2.5 17q53 8 71.5 21.5t37.5 58.5q77 182 161 424q17 42 20 70q30 -2 52 -2t50 2l17 -58q4 -11 66 -185.5t82 -227.5q25 -64 41.5 -79t71.5 -24q2 -3 0.5 -17t-4.5 -17q-11 0 -47.5 1t-64.5 2q-65 -68 -65 -114q0 -21 12.5 -32
t31.5 -11q25 0 51 14q2 -5 1 -18t-3 -16q-18 -26 -48.5 -39t-54.5 -13zM275 459h-4l-62 -184q-2 -8 3 -8q11 -1 56 -1q57 0 67 1q3 0 3 5q-39 122 -63 187z" />
    <glyph glyph-name="uni0105" unicode="&#x105;" horiz-adv-x="442" 
d="M250 258q0 32 -15 52q-23 31 -68 31q-37 0 -49 -14q-7 -7 -33 -59q-4 -3 -20.5 5t-15.5 12q0 7 8 34t13 31q37 27 84.5 45.5t72.5 18.5q77 0 119 -61q25 -37 25 -101q0 -24 -1 -78.5t-1 -74.5q0 -38 27 -38q16 0 33 5q2 -2 -0.5 -19.5t-4.5 -20.5q-21 -19 -53 -29
q-66 -56 -66 -106q0 -19 12 -30t30 -11q23 0 48 14q2 -5 1 -17.5t-3 -15.5q-17 -24 -45.5 -36.5t-52.5 -12.5q-30 0 -54 18t-24 58q0 58 98 130q-51 -1 -61 30q-3 8 -5 17q-1 2 -4 1q-33 -22 -65 -35t-46 -13q-34 0 -61 24q-39 36 -39 99q0 10 5.5 31t11.5 29
q16 10 95.5 33.5t94.5 29.5q6 1 8 11q1 6 1 13zM249 195q0 5 -3 5l-28.5 -9.5t-36.5 -13t-19 -9.5q-8 -8 -8 -33q0 -35 20 -54t45 -19q16 0 22 6q6 4 6 18q2 31 2 109z" />
    <glyph glyph-name="uni0106" unicode="&#x106;" horiz-adv-x="669" 
d="M567 435q-6 36 -10.5 53t-16 36.5t-30.5 30.5q-46 26 -117 26q-83 0 -131 -66t-48 -197q0 -54 12.5 -102t37.5 -89.5t69 -66t102 -24.5q63 0 97 31q37 32 76 100q21 -5 30 -21q-10 -34 -35.5 -80.5t-45.5 -59.5q-79 -24 -150 -24q-171 0 -264 83t-93 243q0 87 42 159.5
t122 111.5q84 42 203 42q45 0 118.5 -7.5t84.5 -8.5q-16 -83 -16 -167q-3 -4 -19.5 -5.5t-17.5 2.5zM473 814q10 0 36.5 -21.5t31.5 -32.5q1 -1 1 -5.5t-1 -5.5q-13 -12 -93.5 -52t-87.5 -40q-3 0 -12 11t-9 16q27 29 73.5 75t60.5 55z" />
    <glyph glyph-name="uni0107" unicode="&#x107;" horiz-adv-x="429" 
d="M406 75q-35 -45 -82.5 -66t-93.5 -21q-97 0 -151 69q-43 53 -43 140q0 50 27 99t74 75q27 17 70.5 30t78.5 13q50 0 86 -13q29 -15 35 -29q4 -9 0 -20q-6 -15 -22 -35t-25 -25q-2 -1 -8 -0.5t-7 1.5q-2 2 -14 16t-20 21t-21 18t-26.5 16t-27.5 5q-34 0 -54.5 -33
t-20.5 -90q0 -68 31 -114q38 -53 108 -53q59 0 107 40q5 -2 6 -7q2 -6 -0.5 -19t-6.5 -18zM264 609q8 4 49.5 6t50.5 -1q1 -1 2.5 -6.5t0.5 -7.5q-8 -15 -60.5 -78.5t-70.5 -80.5q-3 -2 -15.5 5.5t-13.5 11.5q49 134 57 151z" />
    <glyph glyph-name="uni0108" unicode="&#x108;" horiz-adv-x="669" 
d="M567 435q-6 36 -10.5 53t-16 36.5t-30.5 30.5q-46 26 -117 26q-83 0 -131 -66t-48 -197q0 -54 12.5 -102t37.5 -89.5t69 -66t102 -24.5q63 0 97 31q37 32 76 100q21 -5 30 -21q-10 -34 -35.5 -80.5t-45.5 -59.5q-79 -24 -150 -24q-171 0 -264 83t-93 243q0 87 42 159.5
t122 111.5q84 42 203 42q45 0 118.5 -7.5t84.5 -8.5q-16 -83 -16 -167q-3 -4 -19.5 -5.5t-17.5 2.5zM380 789q9 6 21 6q9 -9 63 -53.5t76 -60.5q0 -4 -7.5 -15.5t-9.5 -11.5q-5 0 -60.5 22.5t-69.5 29.5q-4 2 -9 0q-17 -9 -66.5 -30.5t-53.5 -21.5t-10.5 11t-4.5 15
q26 19 73.5 58t57.5 51z" />
    <glyph glyph-name="uni0109" unicode="&#x109;" horiz-adv-x="429" 
d="M406 75q-35 -45 -82.5 -66t-93.5 -21q-97 0 -151 69q-43 53 -43 140q0 50 27 99t74 75q27 17 70.5 30t78.5 13q50 0 86 -13q29 -15 35 -29q4 -9 0 -20q-6 -15 -22 -35t-25 -25q-2 -1 -8 -0.5t-7 1.5q-2 2 -14 16t-20 21t-21 18t-26.5 16t-27.5 5q-34 0 -54.5 -33
t-20.5 -90q0 -68 31 -114q38 -53 108 -53q59 0 107 40q5 -2 6 -7q2 -6 -0.5 -19t-6.5 -18zM244 535q-41 -70 -56 -79q-7 -4 -23 -7.5t-24 -2.5q-6 3 -3 8q16 23 49.5 79t43.5 80q1 3 18.5 8.5t21.5 5.5q15 -35 47.5 -90t47.5 -74q-2 -4 -23 -12t-30 -8q-7 2 -28 33.5
t-35 58.5q-3 1 -6 0z" />
    <glyph glyph-name="uni010A" unicode="&#x10a;" horiz-adv-x="669" 
d="M567 435q-6 36 -10.5 53t-16 36.5t-30.5 30.5q-46 26 -117 26q-83 0 -131 -66t-48 -197q0 -54 12.5 -102t37.5 -89.5t69 -66t102 -24.5q63 0 97 31q37 32 76 100q21 -5 30 -21q-10 -34 -35.5 -80.5t-45.5 -59.5q-79 -24 -150 -24q-171 0 -264 83t-93 243q0 87 42 159.5
t122 111.5q84 42 203 42q45 0 118.5 -7.5t84.5 -8.5q-16 -83 -16 -167q-3 -4 -19.5 -5.5t-17.5 2.5zM463 732q0 -35 -28 -56q-7 -7 -34.5 -9.5t-34.5 2.5q-24 12 -35 44q-5 35 6 47q23 23 74 23q30 0 44 -14q8 -11 8 -37z" />
    <glyph glyph-name="uni010B" unicode="&#x10b;" horiz-adv-x="429" 
d="M406 75q-35 -45 -82.5 -66t-93.5 -21q-97 0 -151 69q-43 53 -43 140q0 50 27 99t74 75q27 17 70.5 30t78.5 13q50 0 86 -13q29 -15 35 -29q4 -9 0 -20q-6 -15 -22 -35t-25 -25q-2 -1 -8 -0.5t-7 1.5q-2 2 -14 16t-20 21t-21 18t-26.5 16t-27.5 5q-34 0 -54.5 -33
t-20.5 -90q0 -68 31 -114q38 -53 108 -53q59 0 107 40q5 -2 6 -7q2 -6 -0.5 -19t-6.5 -18zM322 540q0 -34 -29 -58q-7 -6 -35.5 -8.5t-35.5 1.5q-26 14 -36 45q-5 36 6 48q24 24 76 24q31 0 45 -14q9 -13 9 -38z" />
    <glyph glyph-name="uni010C" unicode="&#x10c;" horiz-adv-x="669" 
d="M567 435q-6 36 -10.5 53t-16 36.5t-30.5 30.5q-46 26 -117 26q-83 0 -131 -66t-48 -197q0 -54 12.5 -102t37.5 -89.5t69 -66t102 -24.5q63 0 97 31q37 32 76 100q21 -5 30 -21q-10 -34 -35.5 -80.5t-45.5 -59.5q-79 -24 -150 -24q-171 0 -264 83t-93 243q0 87 42 159.5
t122 111.5q84 42 203 42q45 0 118.5 -7.5t84.5 -8.5q-16 -83 -16 -167q-3 -4 -19.5 -5.5t-17.5 2.5zM409 661q-8 -6 -21 -6q-9 9 -63 53.5t-76 60.5q0 4 7.5 15.5t9.5 11.5q5 0 61.5 -23t68.5 -30q4 -2 9 0q17 9 66.5 31t53.5 22t10.5 -11t4.5 -15q-24 -18 -72.5 -57.5
t-58.5 -51.5z" />
    <glyph glyph-name="uni010D" unicode="&#x10d;" horiz-adv-x="429" 
d="M406 75q-35 -45 -82.5 -66t-93.5 -21q-97 0 -151 69q-43 53 -43 140q0 50 27 99t74 75q27 17 70.5 30t78.5 13q50 0 86 -13q29 -15 35 -29q4 -9 0 -20q-6 -15 -22 -35t-25 -25q-2 -1 -8 -0.5t-7 1.5q-2 2 -14 16t-20 21t-21 18t-26.5 16t-27.5 5q-34 0 -54.5 -33
t-20.5 -90q0 -68 31 -114q38 -53 108 -53q59 0 107 40q5 -2 6 -7q2 -6 -0.5 -19t-6.5 -18zM260 532q42 71 56 81q23 11 47 9q1 0 2.5 -3t0.5 -5q-16 -23 -49.5 -79t-44.5 -81q-1 -3 -18 -8t-21 -5q-15 35 -47.5 88.5t-48.5 76.5q2 5 23.5 12.5t30.5 6.5q7 -1 27.5 -33
t35.5 -60q3 -2 6 0z" />
    <glyph glyph-name="uni010E" unicode="&#x10e;" horiz-adv-x="727" 
d="M24 572q-2 4 -1 17.5t3 16.5q10 0 72 -1.5t78 -1.5q31 0 87.5 2t100.5 2q132 0 210 -62q49 -40 75.5 -100.5t26.5 -128.5q0 -150 -100 -237q-100 -86 -280 -86q-32 0 -114.5 2t-127.5 2h-38q-3 5 -3 19t3 15q29 3 59 10q28 7 33 46q3 40 3 229q0 156 -3 202
q-2 20 -7 28.5t-21 14.5q-15 6 -56 11zM256 95q2 -19 15 -32q28 -27 84 -27q64 0 110 57q57 78 57 208q0 71 -26.5 133.5t-73.5 96.5q-48 35 -127 35q-26 0 -33 -5q-5 -1 -8 -13q-1 -40 -1 -248q0 -175 3 -205zM344 651q-8 -6 -21 -6q-9 9 -63 53.5t-76 60.5q0 4 7.5 15.5
t9.5 11.5q5 0 61.5 -23t68.5 -30q4 -2 9 0q17 9 66.5 31t53.5 22t10.5 -11t4.5 -15q-24 -18 -72.5 -57.5t-58.5 -51.5z" />
    <glyph glyph-name="uni010F" unicode="&#x10f;" horiz-adv-x="529" 
d="M520 62q1 -3 -2 -17.5t-5 -16.5q-27 -14 -91.5 -29t-83.5 -15q-5 0 -8 9q-1 4 -1 12t-0.5 19.5t-0.5 17.5q0 4 -5 2q-79 -54 -133 -54q-65 0 -108 54q-46 56 -46 143q0 51 21.5 95.5t56.5 70.5q30 24 85 42.5t99 18.5h27q5 0 5 4q0 107 -3 135q-2 31 -21 38q-23 8 -54 11
q-2 4 -1 17.5t5 14.5q43 0 111.5 10t97.5 20q7 -5 7 -18q-8 -11 -9.5 -28.5t-2.5 -79.5q-1 -61 -1 -270q0 -122 1 -162t17 -42q11 -2 43 -2zM245 371q-25 0 -46 -21q-29 -32 -29 -106q0 -80 32.5 -127.5t84.5 -47.5q20 0 34 9q7 5 8 18q3 107 0 201q-1 36 -27 55t-57 19z
M597 667q8 0 8 -15q1 -27 -6.5 -92t-16.5 -93q-3 -9 -17 -22t-23 -18q-2 -1 -5 1.5t-3 3.5q0 71 -15 186q0 5 3 8q6 7 36 24t39 17z" />
    <glyph glyph-name="uni0110" unicode="&#x110;" horiz-adv-x="727" 
d="M24 572q-2 4 -1 17.5t3 16.5q10 0 72 -1.5t78 -1.5q31 0 87.5 2t100.5 2q132 0 210 -62q49 -40 75.5 -100.5t26.5 -128.5q0 -150 -100 -237q-100 -86 -280 -86q-32 0 -114.5 2t-127.5 2h-38q-3 5 -3 19t3 15q29 3 59 10q28 7 33 46q3 39 3 209q-68 -2 -79 -2q0 32 8 40
h71q0 121 -3 184q-2 20 -7 28.5t-21 14.5q-15 6 -56 11zM256 95q2 -19 15 -32q28 -27 84 -27q64 0 110 57q57 78 57 208q0 71 -26.5 133.5t-73.5 96.5q-48 35 -127 35q-26 0 -33 -5q-5 -1 -8 -13q-1 -36 -1 -215q140 2 146 2q1 -5 -1 -19.5t-4 -20.5q-24 0 -71.5 0.5
t-69.5 0.5q0 -172 3 -201z" />
    <glyph glyph-name="uni0111" unicode="&#x111;" horiz-adv-x="540" 
d="M36 187q0 51 21.5 95.5t56.5 70.5q30 24 85 42.5t99 18.5h27q5 0 5 4v66q-61 -1 -111 -1q4 36 8 40q1 0 32.5 -0.5t69.5 -0.5v37q-2 25 -24 33q-18 5 -53 11q-2 3 0 16t4 15q43 0 112.5 10t98.5 20q8 -8 6 -18q-8 -12 -10 -30t-3 -75v-19q18 0 42 0.5t26 0.5
q3 -21 -5 -40q-5 0 -28.5 0.5t-35.5 0.5v-216q0 -134 1 -175q1 -38 18 -41q16 -3 47 -3q1 -3 -2 -17t-5 -17q-27 -10 -92.5 -20.5t-87.5 -10.5q-5 0 -8 9q-1 4 -1 12t-0.5 19t-0.5 17q0 1 -2 2t-3 0q-80 -53 -133 -53q-65 0 -108 54q-46 56 -46 143zM245 371q-25 0 -46 -21
q-29 -32 -29 -106q0 -80 32.5 -128t84.5 -48q20 0 34 9q7 5 8 18q3 107 0 202q-1 36 -27 55t-57 19z" />
    <glyph glyph-name="uni0112" unicode="&#x112;" horiz-adv-x="586" 
d="M30 572q-3 4 -2 18t4 16q18 0 71.5 -1.5t79.5 -1.5h201q88 0 130 6q3 0 3 -4q-8 -34 -14 -151q-4 -3 -19 -4t-19 1q-9 53 -19 74q-12 24 -41 26q-19 2 -73.5 2.5t-65.5 -1.5q-3 -1 -6.5 -7.5t-3.5 -10.5v-194q0 -8 7 -8q111 0 127 1q28 1 36 35q2 6 4.5 19t3.5 17
q4 2 20 1.5t20 -3.5q0 -4 -2.5 -41t-2.5 -56q0 -45 2 -101q-4 -2 -19.5 -2.5t-19.5 1.5l-10 41q-10 25 -34 29q-18 2 -125 2q-2 0 -4.5 -3.5t-2.5 -5.5v-176q0 -28 21 -33q33 -7 124 -7q34 0 49.5 5.5t31.5 24.5q27 31 53 92q5 1 19.5 -4t17.5 -9q-22 -102 -46 -147
q-7 -16 -52 -16q-39 0 -134.5 2t-151.5 2q-26 0 -89.5 -1.5t-90.5 -1.5q-2 6 -2 18t2 16q57 8 74 13q28 8 28 48q3 57 3 241q0 152 -3 188q-1 20 -7 28.5t-21 13.5t-52 9zM185 743q20 -2 60 -2q30 0 80.5 -0.5t77 -0.5t29.5 1q0 -11 -9 -37.5t-12 -27.5q-16 -3 -208 -3
l-38 2q1 8 9.5 36.5t10.5 31.5z" />
    <glyph glyph-name="uni0113" unicode="&#x113;" horiz-adv-x="448" 
d="M414 119q5 -5 5 -7q1 -9 -5 -33q-33 -41 -84 -66t-100 -25q-84 0 -134 48q-60 57 -60 164q0 59 26 106t68 74q57 34 120 34q52 0 88.5 -26t51 -56t19.5 -63q1 -9 15 -14q1 -2 -1.5 -14t-4.5 -13q-38 -13 -248 -22q-4 -2 -4 -10q4 -48 38 -82q35 -34 95 -34q64 0 115 39z
M220 374q-25 0 -40.5 -32.5t-15.5 -83.5q0 -6 6 -6q80 -3 107 3q6 2 6 9q-2 50 -18.5 80t-44.5 30zM137 556q18 -2 48 -2h175q0 -11 -7 -38t-10 -28q-14 -3 -188 -3q-29 0 -35 2q1 8 8 37.5t9 31.5z" />
    <glyph glyph-name="uni0114" unicode="&#x114;" horiz-adv-x="586" 
d="M30 572q-3 4 -2 18t4 16q18 0 71.5 -1.5t79.5 -1.5h201q88 0 130 6q3 0 3 -4q-8 -34 -14 -151q-4 -3 -19 -4t-19 1q-9 53 -19 74q-12 24 -41 26q-19 2 -73.5 2.5t-65.5 -1.5q-3 -1 -6.5 -7.5t-3.5 -10.5v-194q0 -8 7 -8q111 0 127 1q28 1 36 35q2 6 4.5 19t3.5 17
q4 2 20 1.5t20 -3.5q0 -4 -2.5 -41t-2.5 -56q0 -45 2 -101q-4 -2 -19.5 -2.5t-19.5 1.5l-10 41q-10 25 -34 29q-18 2 -125 2q-2 0 -4.5 -3.5t-2.5 -5.5v-176q0 -28 21 -33q33 -7 124 -7q34 0 49.5 5.5t31.5 24.5q27 31 53 92q5 1 19.5 -4t17.5 -9q-22 -102 -46 -147
q-7 -16 -52 -16q-39 0 -134.5 2t-151.5 2q-26 0 -89.5 -1.5t-90.5 -1.5q-2 6 -2 18t2 16q57 8 74 13q28 8 28 48q3 57 3 241q0 152 -3 188q-1 20 -7 28.5t-21 13.5t-52 9zM317 711q52 0 90 46q2 2 14 8.5t15 6.5t6 -1.5t2 -4.5q-15 -48 -57.5 -82.5t-97.5 -34.5
q-52 0 -83.5 22.5t-31.5 55.5q0 9 11 24t21 21q2 1 7 0.5t6 -2.5q11 -30 33.5 -44.5t64.5 -14.5z" />
    <glyph glyph-name="uni0115" unicode="&#x115;" horiz-adv-x="448" 
d="M414 119q5 -5 5 -7q1 -9 -5 -33q-33 -41 -84 -66t-100 -25q-84 0 -134 48q-60 57 -60 164q0 59 26 106t68 74q57 34 120 34q52 0 88.5 -26t51 -56t19.5 -63q1 -9 15 -14q1 -2 -1.5 -14t-4.5 -13q-38 -13 -248 -22q-4 -2 -4 -10q4 -48 38 -82q35 -34 95 -34q64 0 115 39z
M220 374q-25 0 -40.5 -32.5t-15.5 -83.5q0 -6 6 -6q80 -3 107 3q6 2 6 9q-2 50 -18.5 80t-44.5 30zM254 525q53 0 87 52q2 2 13 9t13 7q8 0 8 -7q-11 -54 -50 -90.5t-97 -36.5q-46 0 -77.5 24.5t-31.5 62.5q0 10 13.5 25t27.5 23q1 1 6 0.5t6 -2.5q12 -67 82 -67z" />
    <glyph glyph-name="uni0116" unicode="&#x116;" horiz-adv-x="586" 
d="M30 572q-3 4 -2 18t4 16q18 0 71.5 -1.5t79.5 -1.5h201q88 0 130 6q3 0 3 -4q-8 -34 -14 -151q-4 -3 -19 -4t-19 1q-9 53 -19 74q-12 24 -41 26q-19 2 -73.5 2.5t-65.5 -1.5q-3 -1 -6.5 -7.5t-3.5 -10.5v-194q0 -8 7 -8q111 0 127 1q28 1 36 35q2 6 4.5 19t3.5 17
q4 2 20 1.5t20 -3.5q0 -4 -2.5 -41t-2.5 -56q0 -45 2 -101q-4 -2 -19.5 -2.5t-19.5 1.5l-10 41q-10 25 -34 29q-18 2 -125 2q-2 0 -4.5 -3.5t-2.5 -5.5v-176q0 -28 21 -33q33 -7 124 -7q34 0 49.5 5.5t31.5 24.5q27 31 53 92q5 1 19.5 -4t17.5 -9q-22 -102 -46 -147
q-7 -16 -52 -16q-39 0 -134.5 2t-151.5 2q-26 0 -89.5 -1.5t-90.5 -1.5q-2 6 -2 18t2 16q57 8 74 13q28 8 28 48q3 57 3 241q0 152 -3 188q-1 20 -7 28.5t-21 13.5t-52 9zM366 717q0 -35 -28 -56q-7 -7 -34.5 -9.5t-34.5 2.5q-24 12 -35 44q-5 35 6 47q23 23 74 23
q30 0 44 -14q8 -11 8 -37z" />
    <glyph glyph-name="uni0117" unicode="&#x117;" horiz-adv-x="448" 
d="M414 119q5 -5 5 -7q1 -9 -5 -33q-33 -41 -84 -66t-100 -25q-84 0 -134 48q-60 57 -60 164q0 59 26 106t68 74q57 34 120 34q52 0 88.5 -26t51 -56t19.5 -63q1 -9 15 -14q1 -2 -1.5 -14t-4.5 -13q-38 -13 -248 -22q-4 -2 -4 -10q4 -48 38 -82q35 -34 95 -34q64 0 115 39z
M220 374q-25 0 -40.5 -32.5t-15.5 -83.5q0 -6 6 -6q80 -3 107 3q6 2 6 9q-2 50 -18.5 80t-44.5 30zM304 540q0 -34 -29 -58q-7 -6 -35.5 -8.5t-35.5 1.5q-26 14 -36 45q-5 36 6 48q24 24 76 24q31 0 45 -14q9 -13 9 -38z" />
    <glyph glyph-name="uni0118" unicode="&#x118;" horiz-adv-x="586" 
d="M8 31q57 8 74 13q28 8 28 48q3 57 3 241q0 152 -3 188q-1 20 -7 28.5t-21 13.5t-52 9q-3 4 -2 18t4 16q18 0 71.5 -1.5t79.5 -1.5h201q88 0 130 6q3 0 3 -4q-8 -34 -14 -151q-4 -3 -19 -4t-19 1q-9 53 -19 74q-12 24 -40 26q-19 2 -74 2.5t-66 -1.5q-3 -1 -6.5 -7.5
t-3.5 -10.5q-1 -2 -0.5 -96t0.5 -98q0 -8 7 -8q111 0 127 1q15 1 23 8t13 27q4 12 8 36q4 2 20 1.5t20 -3.5q0 -6 -1.5 -25.5t-2.5 -38.5t-1 -33q0 -45 2 -101q-4 -2 -19.5 -2.5t-19.5 1.5q-5 22 -11 43q-9 23 -34 27q-17 2 -124 2q-2 0 -4.5 -3.5t-2.5 -5.5v-176
q0 -28 21 -33q33 -7 124 -7q34 0 49.5 5.5t31.5 24.5q27 31 53 92q5 1 19.5 -4t17.5 -9q-22 -102 -46 -147q-7 -15 -50 -16q-61 -66 -61 -110q0 -21 12.5 -32t31.5 -11q25 0 51 14q2 -5 1 -18t-3 -16q-18 -26 -48.5 -39t-54.5 -13q-32 0 -57 19t-25 61q0 65 104 145
q-19 0 -104.5 2t-134.5 2q-26 0 -89.5 -1.5t-90.5 -1.5q-2 6 -2 18t2 16z" />
    <glyph glyph-name="uni0119" unicode="&#x119;" horiz-adv-x="448" 
d="M414 119q5 -5 5 -7q1 -9 -5 -33q-40 -48 -94 -70q-32 -26 -49 -55.5t-17 -50.5t12 -31.5t30 -10.5q25 0 48 13q2 -5 1 -17t-3 -15q-17 -24 -45.5 -36.5t-51.5 -12.5q-30 0 -54 18t-24 57q0 55 89 122q-9 -2 -26 -2q-84 0 -134 48q-60 57 -60 164q0 59 26 106t68 74
q57 34 120 34q52 0 88.5 -26t51 -56t19.5 -63q1 -9 15 -14q1 -2 -1.5 -14t-4.5 -13q-38 -13 -248 -22q-4 -2 -4 -10q4 -48 38 -82q35 -34 95 -34q64 0 115 39zM220 374q-25 0 -40.5 -32.5t-15.5 -83.5q0 -6 6 -6q80 -3 107 3q6 2 6 9q-2 50 -18.5 80t-44.5 30z" />
    <glyph glyph-name="uni011A" unicode="&#x11a;" horiz-adv-x="586" 
d="M30 572q-3 4 -2 18t4 16q18 0 71.5 -1.5t79.5 -1.5h201q88 0 130 6q3 0 3 -4q-8 -34 -14 -151q-4 -3 -19 -4t-19 1q-9 53 -19 74q-12 24 -41 26q-19 2 -73.5 2.5t-65.5 -1.5q-3 -1 -6.5 -7.5t-3.5 -10.5v-194q0 -8 7 -8q111 0 127 1q28 1 36 35q2 6 4.5 19t3.5 17
q4 2 20 1.5t20 -3.5q0 -4 -2.5 -41t-2.5 -56q0 -45 2 -101q-4 -2 -19.5 -2.5t-19.5 1.5l-10 41q-10 25 -34 29q-18 2 -125 2q-2 0 -4.5 -3.5t-2.5 -5.5v-176q0 -28 21 -33q33 -7 124 -7q34 0 49.5 5.5t31.5 24.5q27 31 53 92q5 1 19.5 -4t17.5 -9q-22 -102 -46 -147
q-7 -16 -52 -16q-39 0 -134.5 2t-151.5 2q-26 0 -89.5 -1.5t-90.5 -1.5q-2 6 -2 18t2 16q57 8 74 13q28 8 28 48q3 57 3 241q0 152 -3 188q-1 20 -7 28.5t-21 13.5t-52 9zM309 645q-8 -6 -21 -6q-9 9 -63 53.5t-76 60.5q0 4 7.5 15.5t9.5 11.5q5 0 61.5 -23t68.5 -30
q4 -2 9 0q17 9 66.5 31t53.5 22t10.5 -11t4.5 -15q-24 -18 -72.5 -57.5t-58.5 -51.5z" />
    <glyph glyph-name="uni011B" unicode="&#x11b;" horiz-adv-x="448" 
d="M414 119q5 -5 5 -7q1 -9 -5 -33q-33 -41 -84 -66t-100 -25q-84 0 -134 48q-60 57 -60 164q0 59 26 106t68 74q57 34 120 34q52 0 88.5 -26t51 -56t19.5 -63q1 -9 15 -14q1 -2 -1.5 -14t-4.5 -13q-38 -13 -248 -22q-4 -2 -4 -10q4 -48 38 -82q35 -34 95 -34q64 0 115 39z
M220 374q-25 0 -40.5 -32.5t-15.5 -83.5q0 -6 6 -6q80 -3 107 3q6 2 6 9q-2 50 -18.5 80t-44.5 30zM245 532q42 71 56 81q23 11 47 9q1 0 2.5 -3t0.5 -5q-16 -23 -49.5 -79t-44.5 -81q-1 -3 -18 -8t-21 -5q-15 35 -47.5 88.5t-48.5 76.5q2 5 23.5 12.5t30.5 6.5
q7 -1 27.5 -33t35.5 -60q3 -2 6 0z" />
    <glyph glyph-name="uni011C" unicode="&#x11c;" horiz-adv-x="713" 
d="M649 44q0 -16 -6 -24q-123 -38 -233 -38q-172 0 -265.5 80.5t-93.5 242.5q0 98 47.5 171.5t132.5 108.5q83 36 202 36q54 0 126.5 -10.5t80.5 -11.5q-19 -83 -17 -176q-4 -4 -20 -5.5t-20 1.5q-11 94 -45 121q-48 40 -135 40q-82 0 -135 -60t-53 -199q0 -132 58.5 -214.5
t154.5 -82.5q28 0 40 11q12 7 14 30q6 48 2 102q-2 27 -8.5 39.5t-26.5 18.5q-4 1 -64 10q-3 5 -2.5 19t2.5 17q9 0 69 -1.5t101 -1.5q63 0 126 3q2 -3 2 -17.5t-2 -18.5q-23 -5 -30 -7q-15 -5 -20 -15t-5 -42q-1 -20 -0.5 -57t1.5 -46q3 -12 22 -24zM382 789q9 6 21 6
q9 -9 63 -53.5t76 -60.5q0 -4 -7.5 -15.5t-9.5 -11.5q-5 0 -60.5 22.5t-69.5 29.5q-4 2 -9 0q-17 -9 -66.5 -30.5t-53.5 -21.5t-10.5 11t-4.5 15q26 19 73.5 58t57.5 51z" />
    <glyph glyph-name="uni011D" unicode="&#x11d;" horiz-adv-x="473" 
d="M228 414q48 0 110 -20q35 -10 62 -10q26 0 37.5 3.5t23.5 16.5q2 1 8.5 -3t7.5 -6q0 -9 -9 -32.5t-17 -31.5q-12 -12 -36 -12q-13 0 -20 1q-2 0 -2 -4q6 -13 6 -40q0 -79 -58 -123q-43 -33 -118 -37q-4 -1 -37 -1q-3 1 -8.5 -5t-5.5 -10q0 -22 34 -27q143 -13 173 -21
q32 -9 56.5 -36t24.5 -70q0 -57 -37 -102t-98 -74q-55 -26 -123 -26q-73 0 -121 28q-62 38 -62 92q0 26 6 39q7 7 90 57q2 2 0 4q-64 28 -67 84q3 13 4 16q70 38 86 50q1 1 1 3t-1 3q-103 33 -103 139q0 76 62 117q54 38 131 38zM212 378q-23 0 -38 -23.5t-15 -65.5
q0 -70 19 -103.5t50 -33.5q19 0 32 16q20 22 20 81q0 57 -16.5 93t-51.5 36zM252 -201q56 0 83.5 21.5t27.5 52.5q0 36 -36 54q-45 24 -154 24q-19 0 -28 -7q-28 -20 -28 -50q0 -32 26 -58q37 -37 109 -37zM226 535q-41 -70 -56 -79q-7 -4 -23 -7.5t-24 -2.5q-6 3 -3 8
q16 23 49.5 79t43.5 80q1 3 18.5 8.5t21.5 5.5q15 -35 47.5 -90t47.5 -74q-2 -4 -23 -12t-30 -8q-7 2 -28 33.5t-35 58.5q-3 1 -6 0z" />
    <glyph glyph-name="uni011E" unicode="&#x11e;" horiz-adv-x="713" 
d="M649 44q0 -16 -6 -24q-123 -38 -233 -38q-172 0 -265.5 80.5t-93.5 242.5q0 98 47.5 171.5t132.5 108.5q83 36 202 36q54 0 126.5 -10.5t80.5 -11.5q-19 -83 -17 -176q-4 -4 -20 -5.5t-20 1.5q-11 94 -45 121q-48 40 -135 40q-82 0 -135 -60t-53 -199q0 -132 58.5 -214.5
t154.5 -82.5q28 0 40 11q12 7 14 30q6 48 2 102q-2 27 -8.5 39.5t-26.5 18.5q-4 1 -64 10q-3 5 -2.5 19t2.5 17q9 0 69 -1.5t101 -1.5q63 0 126 3q2 -3 2 -17.5t-2 -18.5q-23 -5 -30 -7q-15 -5 -20 -15t-5 -42q-1 -20 -0.5 -57t1.5 -46q3 -12 22 -24zM416 724q52 0 90 46
q2 2 14 8.5t15 6.5q9 0 8 -6q-15 -48 -57.5 -82.5t-97.5 -34.5q-52 0 -83.5 22.5t-31.5 55.5q0 9 11 24t21 21q2 1 7 0.5t6 -2.5q11 -30 33.5 -44.5t64.5 -14.5z" />
    <glyph glyph-name="uni011F" unicode="&#x11f;" horiz-adv-x="473" 
d="M228 414q48 0 110 -20q35 -10 62 -10q26 0 37.5 3.5t23.5 16.5q2 1 8.5 -3t7.5 -6q0 -9 -9 -32.5t-17 -31.5q-12 -12 -36 -12q-13 0 -20 1q-2 0 -2 -4q6 -13 6 -40q0 -79 -58 -123q-43 -33 -118 -37q-4 -1 -37 -1q-3 1 -8.5 -5t-5.5 -10q0 -22 34 -27q143 -13 173 -21
q32 -9 56.5 -36t24.5 -70q0 -57 -37 -102t-98 -74q-55 -26 -123 -26q-73 0 -121 28q-62 38 -62 92q0 26 6 39q7 7 90 57q2 2 0 4q-64 28 -67 84q3 13 4 16q70 38 86 50q1 1 1 3t-1 3q-103 33 -103 139q0 76 62 117q54 38 131 38zM212 378q-23 0 -38 -23.5t-15 -65.5
q0 -70 19 -103.5t50 -33.5q19 0 32 16q20 22 20 81q0 57 -16.5 93t-51.5 36zM252 -201q56 0 83.5 21.5t27.5 52.5q0 36 -36 54q-45 24 -154 24q-19 0 -28 -7q-28 -20 -28 -50q0 -32 26 -58q37 -37 109 -37zM244 525q53 0 87 52q2 2 13 9t13 7q8 0 8 -7q-11 -54 -50 -90.5
t-97 -36.5q-46 0 -77.5 24.5t-31.5 62.5q0 10 13.5 25t27.5 23q1 1 6 0.5t6 -2.5q12 -67 82 -67z" />
    <glyph glyph-name="uni0120" unicode="&#x120;" horiz-adv-x="713" 
d="M649 44q0 -16 -6 -24q-123 -38 -233 -38q-172 0 -265.5 80.5t-93.5 242.5q0 98 47.5 171.5t132.5 108.5q83 36 202 36q54 0 126.5 -10.5t80.5 -11.5q-19 -83 -17 -176q-4 -4 -20 -5.5t-20 1.5q-11 94 -45 121q-48 40 -135 40q-82 0 -135 -60t-53 -199q0 -132 58.5 -214.5
t154.5 -82.5q28 0 40 11q12 7 14 30q6 48 2 102q-2 27 -8.5 39.5t-26.5 18.5q-4 1 -64 10q-3 5 -2.5 19t2.5 17q9 0 69 -1.5t101 -1.5q63 0 126 3q2 -3 2 -17.5t-2 -18.5q-23 -5 -30 -7q-15 -5 -20 -15t-5 -42q-1 -20 -0.5 -57t1.5 -46q3 -12 22 -24zM468 731q0 -35 -28 -56
q-7 -7 -34.5 -9.5t-34.5 2.5q-24 12 -35 44q-5 35 6 47q23 23 74 23q30 0 44 -14q8 -11 8 -37z" />
    <glyph glyph-name="uni0121" unicode="&#x121;" horiz-adv-x="473" 
d="M228 414q48 0 110 -20q35 -10 62 -10q26 0 37.5 3.5t23.5 16.5q2 1 8.5 -3t7.5 -6q0 -9 -9 -32.5t-17 -31.5q-12 -12 -36 -12q-13 0 -20 1q-2 0 -2 -4q6 -13 6 -40q0 -79 -58 -123q-43 -33 -118 -37q-4 -1 -37 -1q-3 1 -8.5 -5t-5.5 -10q0 -22 34 -27q143 -13 173 -21
q32 -9 56.5 -36t24.5 -70q0 -57 -37 -102t-98 -74q-55 -26 -123 -26q-73 0 -121 28q-62 38 -62 92q0 26 6 39q7 7 90 57q2 2 0 4q-64 28 -67 84q3 13 4 16q70 38 86 50q1 1 1 3t-1 3q-103 33 -103 139q0 76 62 117q54 38 131 38zM212 378q-23 0 -38 -23.5t-15 -65.5
q0 -70 19 -103.5t50 -33.5q19 0 32 16q20 22 20 81q0 57 -16.5 93t-51.5 36zM252 -201q56 0 83.5 21.5t27.5 52.5q0 36 -36 54q-45 24 -154 24q-19 0 -28 -7q-28 -20 -28 -50q0 -32 26 -58q37 -37 109 -37zM301 540q0 -34 -29 -58q-7 -6 -35.5 -8.5t-35.5 1.5q-26 14 -36 45
q-5 36 6 48q24 24 76 24q31 0 45 -14q9 -13 9 -38z" />
    <glyph glyph-name="uni0122" unicode="&#x122;" horiz-adv-x="713" 
d="M649 44q0 -16 -6 -24q-123 -38 -233 -38q-172 0 -265.5 80.5t-93.5 242.5q0 98 47.5 171.5t132.5 108.5q83 36 202 36q54 0 126.5 -10.5t80.5 -11.5q-19 -83 -17 -176q-4 -4 -20 -5.5t-20 1.5q-11 94 -45 121q-48 40 -135 40q-82 0 -135 -60t-53 -199q0 -132 58.5 -214.5
t154.5 -82.5q28 0 40 11q12 7 14 30q6 48 2 102q-2 27 -8.5 39.5t-26.5 18.5q-4 1 -64 10q-3 5 -2.5 19t2.5 17q9 0 69 -1.5t101 -1.5q63 0 126 3q2 -3 2 -17.5t-2 -18.5q-23 -5 -30 -7q-15 -5 -20 -15t-5 -42q-1 -20 -0.5 -57t1.5 -46q3 -12 22 -24zM403 -48q19 0 38 -21
t19 -55q0 -52 -38 -85.5t-96 -44.5q-4 1 -9 13t-3 16q41 17 54.5 31.5t13.5 36.5q0 34 -57 52q-2 2 -2 10.5t2 10.5q11 11 34 23.5t44 12.5z" />
    <glyph glyph-name="uni0123" unicode="&#x123;" horiz-adv-x="473" 
d="M223 453q-20 0 -39 22.5t-19 55.5q0 41 32.5 72t84.5 42q7 -15 10 -28q-38 -15 -50.5 -28t-12.5 -32q0 -29 60 -46q1 0 1 -8.5t-1 -9.5q-8 -13 -30 -26.5t-36 -13.5zM228 414q48 0 110 -20q35 -10 62 -10q26 0 37.5 3.5t23.5 16.5q2 1 8.5 -3t7.5 -6q0 -9 -9 -32.5
t-17 -31.5q-12 -12 -36 -12q-13 0 -20 1q-2 0 -2 -4q6 -13 6 -40q0 -79 -58 -123q-43 -33 -118 -37q-4 -1 -37 -1q-3 1 -8.5 -5t-5.5 -10q0 -22 34 -27q143 -13 173 -21q32 -9 56.5 -36t24.5 -70q0 -57 -37 -102t-98 -74q-55 -26 -123 -26q-73 0 -121 28q-62 38 -62 92
q0 26 6 39q7 7 90 57q2 2 0 4q-64 28 -67 84q3 13 4 16q70 38 86 50q1 1 1 3t-1 3q-103 33 -103 139q0 76 62 117q54 38 131 38zM212 378q-23 0 -38 -23.5t-15 -65.5q0 -70 19 -103.5t50 -33.5q19 0 32 16q20 22 20 81q0 57 -16.5 93t-51.5 36zM252 -201q56 0 83.5 21.5
t27.5 52.5q0 36 -36 54q-45 24 -154 24q-19 0 -28 -7q-28 -20 -28 -50q0 -32 26 -58q37 -37 109 -37z" />
    <glyph glyph-name="uni0124" unicode="&#x124;" horiz-adv-x="755" 
d="M31 572q-3 2 -2.5 17t3.5 17q4 0 51.5 -1.5t95.5 -1.5q45 0 93 1.5t54 1.5q3 -4 3 -18t-4 -16q-34 -4 -46 -9q-14 -5 -19 -16t-5 -34q-1 -24 -1 -164q2 -6 5 -7q9 -2 129 -2q95 0 108 1q6 3 6 7q0 142 -2 179q-2 29 -20 35q-13 5 -55 10q-4 3 -3.5 17t4.5 17
q16 0 62 -1.5t90 -1.5q48 0 91 1.5t51 1.5q3 -3 3 -16.5t-4 -17.5q-39 -7 -47 -10q-14 -5 -19 -14.5t-6 -32.5q-2 -45 -2 -232q0 -145 2 -189q2 -41 21 -50q9 -3 64 -13q2 -3 0 -17.5t-5 -16.5q-7 0 -57 1.5t-91 1.5q-39 0 -93 -1.5t-59 -1.5q-4 3 -4 16.5t4 17.5q20 3 48 9
q25 7 26 50q1 23 1 182q0 7 -5 7q-20 1 -113 1q-124 -1 -128 -3q-2 -2 -2 -6q0 -130 1 -175q0 -24 5 -36t22 -17q9 -3 55 -12q3 -4 1 -17.5t-5 -16.5q-5 0 -26 0.5t-56.5 1.5t-75.5 1q-46 0 -94.5 -1.5t-51.5 -1.5q-3 2 -3.5 16.5t2.5 17.5l46 9q20 4 27 17.5t9 46.5
q1 15 1 195q0 185 -1 215q-2 24 -7 34.5t-20 14.5q-17 4 -52 9zM368 779q9 6 21 6q9 -9 63 -53.5t76 -60.5q0 -4 -7.5 -15.5t-9.5 -11.5q-5 0 -60.5 22.5t-69.5 29.5q-4 2 -9 0q-17 -9 -66.5 -30.5t-53.5 -21.5t-10.5 11t-4.5 15q26 19 73.5 58t57.5 51z" />
    <glyph glyph-name="uni0125" unicode="&#x125;" horiz-adv-x="531" 
d="M114 784q5 3 22 6q10 -9 64.5 -49.5t75.5 -54.5q0 -4 -6 -13.5t-9 -9.5q-6 1 -64 23t-69 28q-7 2 -10 0q-14 -8 -66 -29.5t-57 -21.5q-4 0 -9.5 8.5t-4.5 13.5q22 14 72 50.5t61 48.5zM8 596q-4 3 -3.5 16.5t3.5 15.5q111 6 196 36q3 -1 6 -7.5t2 -11.5q-13 -20 -13 -95
v-185q0 -7 4 -3q76 52 128 52q62 0 96 -42.5t34 -122.5q0 -166 1 -185q0 -14 7 -17q17 -11 48 -16q3 -3 1 -17t-6 -17q-1 0 -39.5 1.5t-78.5 1.5q-68 0 -107 -3q-4 4 -4 17.5t4 16.5q16 3 26 7q17 6 18 42q5 164 -4 202q-5 26 -26 41.5t-49 15.5q-26 0 -46 -10q-6 -2 -6 -12
q0 -215 1 -230q0 -2 0.5 -8t0.5 -8t0.5 -6.5t1 -6.5t1.5 -5t2.5 -4.5l3.5 -3.5t4.5 -3.5t5.5 -2.5q14 -5 31 -8q4 -4 3 -16.5t-4 -17.5q-11 0 -48 1.5t-72 1.5q-36 0 -72 -1.5t-42 -1.5q-4 5 -4 18t4 16q17 3 34 9q18 5 19 55q2 39 2 167q0 260 -4 299q-3 20 -18 26
q-7 3 -42 9z" />
    <glyph glyph-name="Hbar" unicode="&#x126;" horiz-adv-x="755" 
d="M28 31l46 9q20 4 27 17.5t9 46.5q1 15 1 195v110h-67q0 32 8 40h58v22.5v25.5v17q-2 25 -6.5 34.5t-19.5 13.5q-23 7 -53 9q-3 3 -3 17.5t3 17.5q17 0 67 -1.5t81 -1.5t79.5 1.5t66.5 1.5q2 -3 1.5 -17.5t-2.5 -16.5q-33 -4 -45 -9q-14 -5 -19 -15.5t-5 -34.5
q-1 -25 -1 -64h248q0 55 -1 80q-1 27 -22 34q-27 7 -54 9q-1 5 -1 18.5t1 15.5q16 0 62.5 -1.5t90.5 -1.5q41 0 87.5 1.5t55.5 1.5q2 -2 1 -16t-3 -18q-36 -5 -47 -9q-14 -6 -20 -15.5t-6 -31.5q-1 -19 -1 -67h74q1 -5 -1 -19.5t-4 -19.5h-69v-127q0 -145 2 -189
q2 -41 21 -50q8 -3 64 -13q2 -4 0 -17.5t-6 -16.5q-19 0 -69.5 1.5t-77.5 1.5q-23 0 -79 -1.5t-72 -1.5q-4 4 -4 17.5t3 16.5q23 3 49 9q24 7 25 49q3 61 1 163q0 7 -5 7q-20 1 -113 1q-123 -1 -128 -3q-2 0 -2 -6q0 -110 1 -155q0 -46 26 -53q7 -2 56 -12q2 -3 0.5 -17
t-4.5 -17q-5 0 -54.5 1.5t-103.5 1.5q-46 0 -94.5 -1.5t-51.5 -1.5q-3 3 -3 17t2 17zM502 410h-248v-82q2 -5 5 -8q18 -2 129 -2q82 0 108 2q6 3 6 7v83z" />
    <glyph glyph-name="hbar" unicode="&#x127;" horiz-adv-x="531" 
d="M17 31q16 3 34 9q11 3 14 14.5t5 40.5q2 78 2 167l-1 222q-9 0 -31 -0.5t-32 -0.5q4 36 8 40q8 0 29 -0.5t25 -0.5q0 26 -1 37q-1 9 -2 13.5t-5.5 9.5t-13.5 8t-42 7q-2 5 -1 17t3 14q42 1 103.5 13t92.5 23q3 -1 6 -8.5t2 -10.5q-8 -12 -10 -29t-3 -75v-19q18 0 67 0.5
t51 0.5q3 -21 -5 -40q-5 0 -53 0.5t-60 0.5v-119q0 -7 4 -3q76 52 128 52q62 0 96 -42.5t34 -122.5q0 -166 1 -185q0 -12 6 -16q14 -11 49 -17q2 -4 0.5 -17t-5.5 -17q-1 0 -39.5 1.5t-78.5 1.5q-68 0 -107 -3q-8 20 0 34q16 3 26 7q17 6 18 42q5 159 -4 202
q-6 26 -26.5 41.5t-48.5 15.5q-26 0 -46 -10q-6 -2 -6 -12q0 -215 1 -230q0 -2 0.5 -8t0.5 -8t0.5 -6.5t1 -6.5t1.5 -5t2.5 -4.5l3.5 -3.5t4.5 -3.5t5.5 -2.5q18 -6 31 -8q7 -15 -1 -34q-12 0 -52 1.5t-68 1.5q-25 0 -62.5 -1.5t-51.5 -1.5q-4 7 -4 18t4 16z" />
    <glyph glyph-name="uni0128" unicode="&#x128;" horiz-adv-x="363" 
d="M28 572q-2 4 -2 17.5t3 16.5q14 0 62 -1.5t87 -1.5q58 0 104.5 1.5t47.5 1.5q2 -3 2.5 -16.5t-2.5 -17.5q-38 -6 -52 -10q-15 -6 -19 -16t-5 -35q-1 -15 -1 -188q0 -213 1 -233q2 -41 30 -48q5 -2 14.5 -3.5t22.5 -4t20 -3.5q2 -4 0 -18t-5 -16q-123 3 -150 3
q-52 0 -99 -1.5t-59 -1.5q-4 3 -4 17t4 17q9 1 46 8q20 5 26.5 14.5t8.5 39.5q2 35 2 231q0 154 -3 197q-2 33 -25 41q-21 6 -55 10zM253 726q38 0 74 35q2 2 4 -4q6 -16 5 -25q-12 -23 -46.5 -47t-66.5 -24q-20 0 -74 17q-27 10 -45 10q-28 0 -66 -33q-1 -1 -4 3
q-10 18 -6 24q10 18 45 45t57 27t67 -15q41 -13 56 -13z" />
    <glyph glyph-name="uni0129" unicode="&#x129;" horiz-adv-x="275" 
d="M263 31q3 -3 1 -16.5t-6 -17.5q-4 0 -44 1.5t-77 1.5q-32 0 -70 -1.5t-47 -1.5q-2 4 -2.5 17.5t2.5 16.5q27 5 37 9q16 4 17 39q1 22 1 132q0 74 -1 91q0 18 -7 25q-10 11 -40 23q-2 4 -1 16t3 15q23 0 83 10.5t94 24.5q0 -19 -0.5 -79.5t-0.5 -90.5q0 -118 1 -164
q0 -34 18 -42zM204 541q36 0 70 33q3 1 6 -4q4 -17 -3 -28q-11 -23 -41.5 -45.5t-59.5 -22.5q-23 0 -68 16q-20 9 -42 9q-29 0 -64 -33q-1 -1 -2 0t-3 2.5t-2 3.5q-1 5 1 17t4 14q10 17 40 40t51 23q24 0 62 -13q36 -12 51 -12z" />
    <glyph glyph-name="uni012A" unicode="&#x12a;" horiz-adv-x="363" 
d="M28 572q-2 4 -2 17.5t3 16.5q14 0 62 -1.5t87 -1.5q58 0 104.5 1.5t47.5 1.5q2 -3 2.5 -16.5t-2.5 -17.5q-38 -6 -52 -10q-15 -6 -19 -16t-5 -35q-1 -15 -1 -188q0 -213 1 -233q2 -41 30 -48q5 -2 14.5 -3.5t22.5 -4t20 -3.5q2 -4 0 -18t-5 -16q-123 3 -150 3
q-52 0 -99 -1.5t-59 -1.5q-4 3 -4 17t4 17q9 1 46 8q20 5 26.5 14.5t8.5 39.5q2 35 2 231q0 154 -3 197q-2 33 -25 41q-21 6 -55 10zM68 739q20 -2 60 -2h187q0 -11 -9 -37.5t-12 -27.5q-16 -3 -208 -3l-38 2q1 8 9.5 36.5t10.5 31.5z" />
    <glyph glyph-name="uni012B" unicode="&#x12b;" horiz-adv-x="275" 
d="M263 31q3 -3 1 -16.5t-6 -17.5q-4 0 -44 1.5t-77 1.5q-32 0 -70 -1.5t-47 -1.5q-2 4 -2.5 17.5t2.5 16.5q27 5 37 9q16 4 17 39q1 22 1 132q0 74 -1 91q0 18 -7 25q-10 11 -40 23q-2 4 -1 16t3 15q23 0 83 10.5t94 24.5q0 -19 -0.5 -79.5t-0.5 -90.5q0 -118 1 -164
q0 -34 18 -42zM32 556q18 -2 48 -2h175q0 -11 -7 -38t-10 -28q-14 -3 -188 -3q-29 0 -35 2q1 8 8 37.5t9 31.5z" />
    <glyph glyph-name="uni012C" unicode="&#x12c;" horiz-adv-x="363" 
d="M28 572q-2 4 -2 17.5t3 16.5q14 0 62 -1.5t87 -1.5q58 0 104.5 1.5t47.5 1.5q2 -3 2.5 -16.5t-2.5 -17.5q-38 -6 -52 -10q-15 -6 -19 -16t-5 -35q-1 -15 -1 -188q0 -213 1 -233q2 -41 30 -48q5 -2 14.5 -3.5t22.5 -4t20 -3.5q2 -4 0 -18t-5 -16q-123 3 -150 3
q-52 0 -99 -1.5t-59 -1.5q-4 3 -4 17t4 17q9 1 46 8q20 5 26.5 14.5t8.5 39.5q2 35 2 231q0 154 -3 197q-2 33 -25 41q-21 6 -55 10zM195 710q52 0 90 46q2 2 14 8.5t15 6.5t6 -1.5t2 -4.5q-15 -48 -57.5 -82.5t-97.5 -34.5q-52 0 -83.5 22.5t-31.5 55.5q0 9 11 24t21 21
q2 1 7 0.5t6 -2.5q11 -30 33.5 -44.5t64.5 -14.5z" />
    <glyph glyph-name="uni012D" unicode="&#x12d;" horiz-adv-x="275" 
d="M263 31q3 -3 1 -16.5t-6 -17.5q-4 0 -44 1.5t-77 1.5q-32 0 -70 -1.5t-47 -1.5q-2 4 -2.5 17.5t2.5 16.5q27 5 37 9q16 4 17 39q1 22 1 132q0 74 -1 91q0 18 -7 25q-10 11 -40 23q-2 4 -1 16t3 15q23 0 83 10.5t94 24.5q0 -19 -0.5 -79.5t-0.5 -90.5q0 -118 1 -164
q0 -34 18 -42zM148 525q53 0 87 52q2 2 13 9t13 7q8 0 8 -7q-11 -54 -50 -90.5t-97 -36.5q-46 0 -77.5 24.5t-31.5 62.5q0 10 13.5 25t27.5 23q1 1 6 0.5t6 -2.5q12 -67 82 -67z" />
    <glyph glyph-name="uni012E" unicode="&#x12e;" horiz-adv-x="363" 
d="M174 -229q-32 0 -57 19t-25 61q0 66 101 149q-56 0 -104.5 -1.5t-60.5 -1.5q-4 3 -4 17t4 17q9 1 46 8q18 4 25 13.5t10 40.5q2 35 2 231q0 131 -3 197q-2 34 -25 41q-15 5 -55 10q-2 6 -2 18.5t3 15.5q14 0 62 -1.5t87 -1.5q58 0 104.5 1.5t47.5 1.5q2 -3 2.5 -16.5
t-2.5 -17.5q-38 -6 -52 -10q-15 -6 -19 -16t-5 -35q-1 -15 -1 -188q0 -213 1 -233q2 -41 30 -48q5 -2 14.5 -3.5t22.5 -4t20 -3.5q2 -4 0 -18t-5 -16l-101 3q-52 -61 -52 -113q0 -21 13.5 -32.5t32.5 -11.5q24 0 50 14q2 -5 1 -18t-3 -16q-18 -26 -48 -39t-55 -13z" />
    <glyph glyph-name="uni012F" unicode="&#x12f;" horiz-adv-x="275" 
d="M128 -218q-30 0 -54 18t-24 58q0 34 29 72.5t68 69.5q-38 0 -79 -1.5t-48 -1.5q-2 4 -2.5 17.5t2.5 16.5q27 5 37 9q16 4 17 39q1 22 1 132q0 76 -1 91q0 18 -7 25q-10 11 -40 23q-2 4 -1 16t3 15q23 0 83 10.5t94 24.5q0 -9 -0.5 -72.5t-0.5 -97.5q0 -118 1 -164
q0 -34 18 -42l39 -9q3 -3 1 -16.5t-6 -17.5q-7 0 -31.5 1t-42.5 2q-47 -59 -47 -108q0 -20 12 -31t30 -11q23 0 48 14q2 -5 1 -17.5t-3 -15.5q-17 -24 -45.5 -36.5t-51.5 -12.5zM202 541q0 -35 -28 -59q-7 -6 -35.5 -8.5t-38.5 1.5q-23 9 -33 45q-2 5 -1 23.5t6 25.5
q27 23 75 23q31 0 47 -13q8 -13 8 -38z" />
    <glyph glyph-name="uni0130" unicode="&#x130;" horiz-adv-x="363" 
d="M28 572q-2 4 -2 17.5t3 16.5q14 0 62 -1.5t87 -1.5q58 0 104.5 1.5t47.5 1.5q2 -3 2.5 -16.5t-2.5 -17.5q-38 -6 -52 -10q-15 -6 -19 -16t-5 -35q-1 -15 -1 -188q0 -213 1 -233q2 -41 30 -48q5 -2 14.5 -3.5t22.5 -4t20 -3.5q2 -4 0 -18t-5 -16q-123 3 -150 3
q-52 0 -99 -1.5t-59 -1.5q-4 3 -4 17t4 17q9 1 46 8q20 5 26.5 14.5t8.5 39.5q2 35 2 231q0 154 -3 197q-2 33 -25 41q-21 6 -55 10zM249 719q0 -35 -28 -56q-7 -7 -34.5 -9.5t-34.5 2.5q-24 12 -35 44q-5 35 6 47q23 23 74 23q30 0 44 -14q8 -11 8 -37z" />
    <glyph glyph-name="dotlessi" unicode="&#x131;" horiz-adv-x="275" 
d="M263 31q3 -3 1 -16.5t-6 -17.5q-4 0 -44 1.5t-77 1.5q-32 0 -70 -1.5t-47 -1.5q-2 4 -2.5 17.5t2.5 16.5q27 5 37 9q16 4 17 39q1 22 1 132q0 74 -1 91q0 18 -7 25q-10 11 -40 23q-2 4 -1 16t3 15q23 0 83 10.5t94 24.5q0 -19 -0.5 -79.5t-0.5 -90.5q0 -118 1 -164
q0 -34 18 -42z" />
    <glyph glyph-name="IJ" unicode="&#x132;" horiz-adv-x="724" 
d="M28 572q-2 4 -2 17.5t3 16.5q14 0 62 -1.5t87 -1.5q58 0 104.5 1.5t47.5 1.5q2 -3 2.5 -16.5t-2.5 -17.5q-38 -6 -52 -10q-15 -6 -19 -16t-5 -35q-1 -15 -1 -188q0 -213 1 -233q2 -41 30 -48q5 -2 14.5 -3.5t22.5 -4t20 -3.5q2 -4 0 -18t-5 -16q-123 3 -150 3
q-52 0 -99 -1.5t-59 -1.5q-4 3 -4 17t4 17q9 1 46 8q20 5 26.5 14.5t8.5 39.5q2 35 2 231q0 154 -3 197q-2 33 -25 41q-21 6 -55 10zM395 572q-3 5 -2.5 18t3.5 16q8 0 56 -1.5t105 -1.5q46 0 92 1.5t54 1.5q2 -4 2 -17t-2 -17q-31 -4 -47 -10q-12 -6 -17.5 -15.5
t-5.5 -32.5q0 -6 -1 -169t-5 -232q-5 -105 -45 -172q-42 -70 -104 -113t-117 -43q-60 0 -77 27v18q10 51 32 89q83 -57 121 -57q19 0 32 14q13 17 16 92q6 319 -2 544q-3 42 -30 50q-18 5 -58 10z" />
    <glyph glyph-name="ij" unicode="&#x133;" horiz-adv-x="552" 
d="M262 31q3 -3 1 -16.5t-6 -17.5q-4 0 -43.5 1.5t-76.5 1.5q-32 0 -70 -1.5t-47 -1.5q-2 4 -2.5 17.5t2.5 16.5q27 5 37 9q16 4 17 39q1 22 1 132q0 74 -1 91q0 18 -7 25q-10 11 -40 23q-2 4 -1 16t3 15q23 0 83 10.5t94 24.5q0 -19 -0.5 -79.5t-0.5 -90.5q0 -118 1 -164
q0 -34 18 -42zM202 541q0 -35 -28 -59q-7 -6 -35.5 -8.5t-38.5 1.5q-25 10 -33 45q-3 8 -2 25t7 24q27 23 75 23q31 0 47 -13q8 -13 8 -38zM481 544q0 -16 -8 -33.5t-20 -25.5q-7 -5 -36 -9.5t-37 -0.5q-29 15 -35 52q-3 8 -1.5 22.5t7.5 20.5q26 26 77 26q29 0 44 -15
q9 -12 9 -37zM487 414q-1 -51 -1 -155.5v-154.5q0 -87 -11 -133q-19 -83 -70 -141t-91 -75q-24 1 -35 17q-4 9 0 13q45 22 60 60.5t15 127.5q0 276 -3 326q-2 29 -18 37q-10 7 -43 15q-3 6 -2.5 18t2.5 16q125 6 197 29z" />
    <glyph glyph-name="uni0134" unicode="&#x134;" horiz-adv-x="361" 
d="M32 572q-3 5 -2.5 18t3.5 16q9 0 57 -1.5t104 -1.5q46 0 92 1.5t54 1.5q2 -4 2 -17t-2 -17q-31 -4 -47 -10q-12 -6 -17.5 -15.5t-5.5 -32.5q0 -6 -1 -169t-5 -232q-5 -105 -45 -172q-42 -70 -104 -113t-117 -43q-60 0 -77 27v18q10 51 32 89q83 -57 121 -57q19 0 32 14
q13 17 16 92q6 319 -2 544q-3 42 -30 50q-18 5 -58 10zM176 780q9 6 21 6q9 -9 63 -53.5t76 -60.5q0 -4 -7.5 -15.5t-9.5 -11.5q-5 0 -60.5 22.5t-69.5 29.5q-4 2 -9 0q-17 -9 -66.5 -30.5t-53.5 -21.5t-10.5 11t-4.5 15q26 19 73.5 58t57.5 51z" />
    <glyph glyph-name="uni0135" unicode="&#x135;" horiz-adv-x="277" 
d="M212 414v-155t-1 -155q0 -87 -11 -133q-19 -83 -70 -141t-91 -75q-19 1 -35 17q-4 9 0 13q45 22 60 60.5t15 127.5q0 276 -3 326q-2 29 -18 37q-10 7 -43 15q-3 6 -2.5 18t2.5 16q125 6 197 29zM130 536q-41 -70 -56 -79q-7 -4 -23 -7.5t-24 -2.5q-6 3 -3 8q17 23 50 79
t43 80q1 3 18.5 8.5t21.5 5.5q15 -35 47.5 -90t47.5 -74q-2 -4 -23 -12t-30 -8q-7 2 -28 33.5t-35 58.5q-3 2 -6 0z" />
    <glyph glyph-name="uni0136" unicode="&#x136;" horiz-adv-x="674" 
d="M251 302q0 -166 2 -215q1 -37 29 -45q6 -2 54 -11q2 -4 0 -18t-5 -16q-126 3 -151 3q-47 0 -96.5 -1.5t-56.5 -1.5q-2 4 -2 16.5t2 16.5l52 10q18 5 23.5 17.5t6.5 44.5q2 95 1 216q0 163 -1 197q-2 40 -23 46q-14 5 -54 11q-4 3 -3.5 17t3.5 17q2 0 50 -1.5t99 -1.5
q27 0 74.5 1.5t67.5 1.5q2 -4 2 -16.5t-2 -17.5q-31 -5 -44 -9q-25 -7 -26 -49q-2 -102 -2 -212zM393 572q-2 5 -2 18t3 16q16 0 53.5 -1.5t66.5 -1.5q68 1 133 3q3 -3 3 -16.5t-4 -17.5q-34 -5 -49 -9.5t-35 -17t-41 -37.5l-134 -157v-5q33 -56 102.5 -143t115.5 -132
q26 -24 43 -30q23 -8 54 -10q2 -4 0.5 -17t-4.5 -17q-34 -4 -113 -2.5t-99 9.5q-24 10 -55 46q-64 72 -158 215q-4 7 -16 17q0 18 4 18q70 37 170 171q37 50 37 72q0 13 -17 18q-17 7 -58 11zM387 -30q19 0 38 -21t19 -55q0 -52 -38 -85.5t-96 -44.5q-4 1 -9 13t-3 16
q41 17 54.5 31.5t13.5 36.5q0 34 -57 52q-2 2 -2 10.5t2 10.5q11 11 34 23.5t44 12.5z" />
    <glyph glyph-name="uni0137" unicode="&#x137;" horiz-adv-x="501" 
d="M263 366q-2 5 -0.5 18.5t4.5 15.5q114 -2 205 7q3 -2 3.5 -16t-3.5 -19q-55 -10 -81 -35q-66 -65 -82 -85v-5q14 -27 69 -100t80 -95q13 -12 23.5 -15.5t39.5 -5.5q3 -3 1 -17t-6 -17q-29 -5 -131 -5q-39 1 -61 25q-25 26 -98 141q-18 27 -27 30q1 -53 1 -106
q1 -24 6.5 -32t20.5 -12q20 -5 32 -7q2 -4 0 -17.5t-6 -16.5q-8 0 -46 1.5t-74 1.5q-31 0 -68.5 -1.5t-48.5 -1.5q-4 4 -4 17.5t4 16.5q21 3 34 7q16 7 19 40q2 26 2 157q0 307 -2 326q-2 25 -18 30q-12 5 -38 10q-2 4 -2 16t2 15q45 1 105.5 11.5t87.5 20.5q2 -1 5 -8.5
t2 -9.5q-11 -18 -12 -106q-2 -118 -2 -323q20 3 44 22q28 23 55.5 56t27.5 45q0 13 -17 18q-6 1 -17 3t-19.5 3.5t-9.5 1.5zM291 -37q19 0 38 -21t19 -55q0 -52 -38 -85.5t-96 -44.5q-4 1 -9 13t-3 16q41 17 54.5 31.5t13.5 36.5q0 34 -57 52q-2 2 -2 10.5t2 10.5
q11 11 34 23.5t44 12.5z" />
    <glyph glyph-name="uni0138" unicode="&#x138;" horiz-adv-x="497" 
d="M19 31l31 6q23 5 23 41l1 242q-2 23 -17 29q-6 3 -20 6t-19 5q-1 5 0.5 17t3.5 14q120 6 185 22q-2 -13 -5 -75v-128q38 12 85.5 64t47.5 68q0 10 -12 14q-14 3 -43 6q-3 4 -3 18.5t3 17.5q58 -1 192 6q3 -4 3 -18.5t-3 -18.5q-52 -8 -81 -36l-78 -85q-3 -3 0 -6
q108 -156 141 -186q20 -18 68 -23q2 -2 1 -16.5t-4 -17.5q-25 -5 -130 -5q-30 0 -43 5.5t-27 23.5q-11 14 -99 148q-9 9 -18 11q0 -45 2 -105q0 -32 22 -38l34 -6q3 -4 1.5 -16.5t-4.5 -17.5q-4 0 -41.5 1.5t-74.5 1.5q-39 0 -77 -1.5t-45 -1.5q-3 4 -3 18t3 16z" />
    <glyph glyph-name="uni0139" unicode="&#x139;" horiz-adv-x="567" 
d="M27 572q-3 5 -1.5 18.5t4.5 15.5q15 0 59.5 -1.5t90.5 -1.5q37 0 148 3q3 -3 2.5 -16.5t-2.5 -17.5q-37 -6 -48 -9q-16 -5 -20.5 -13.5t-5.5 -29.5q-2 -32 -2 -182q-2 -188 3 -251q1 -24 19 -31q32 -7 127 -5q32 0 56 33q36 46 68 120q4 2 19.5 -3t16.5 -10
q-3 -23 -24 -89.5t-37 -92.5q-5 -14 -59 -14q-41 0 -135 2.5t-132 2.5q-44 0 -92 -1.5t-61 -1.5q-3 5 -3 18t3 16q38 5 58 10q24 8 28 41q4 44 4 232q0 169 -2 208q-2 34 -29 41q-6 2 -53 9zM276 795q10 0 36.5 -21.5t31.5 -32.5q1 -1 1 -5.5t-1 -5.5q-13 -12 -93.5 -52
t-87.5 -40q-3 0 -12 11t-9 16q27 29 73.5 75t60.5 55z" />
    <glyph glyph-name="uni013A" unicode="&#x13a;" horiz-adv-x="271" 
d="M17 -3q-3 4 -3.5 16.5t2.5 17.5q22 5 37 10q15 6 17 50q1 36 1 233q0 189 -3 238q-2 19 -14 24q-10 5 -43 9q-3 3 -2.5 14.5t3.5 16.5q45 4 106.5 16t85.5 22q3 -1 6 -6t2 -9q-9 -18 -11 -88q-1 -25 -1 -110v-132q0 -211 2 -240q2 -21 5.5 -28t17.5 -11q12 -4 35 -9
q2 -4 0 -16.5t-5 -17.5q-4 0 -21 0.5t-45.5 1.5t-61.5 1q-35 0 -71 -1.5t-39 -1.5zM207 829q10 0 36.5 -21.5t31.5 -32.5q1 -1 1 -5.5t-1 -5.5q-13 -12 -93.5 -52t-87.5 -40q-3 0 -12 11t-9 16q27 29 73.5 75t60.5 55z" />
    <glyph glyph-name="uni013B" unicode="&#x13b;" horiz-adv-x="567" 
d="M27 572q-3 5 -1.5 18.5t4.5 15.5q15 0 59.5 -1.5t90.5 -1.5q37 0 148 3q3 -3 2.5 -16.5t-2.5 -17.5q-37 -6 -48 -9q-16 -5 -20.5 -13.5t-5.5 -29.5q-2 -32 -2 -182q-2 -188 3 -251q1 -24 19 -31q32 -7 127 -5q32 0 56 33q36 46 68 120q4 2 19.5 -3t16.5 -10
q-3 -23 -24 -89.5t-37 -92.5q-5 -14 -59 -14q-41 0 -135 2.5t-132 2.5q-44 0 -92 -1.5t-61 -1.5q-3 5 -3 18t3 16q38 5 58 10q24 8 28 41q4 44 4 232q0 169 -2 208q-2 34 -29 41q-6 2 -53 9zM290 -34q19 0 38 -21t19 -55q0 -52 -38 -85.5t-96 -44.5q-4 1 -9 13t-3 16
q41 17 54.5 31.5t13.5 36.5q0 34 -57 52q-2 2 -2 10.5t2 10.5q11 11 34 23.5t44 12.5z" />
    <glyph glyph-name="uni013C" unicode="&#x13c;" horiz-adv-x="271" 
d="M17 -3q-3 4 -3.5 16.5t2.5 17.5q22 5 37 10q15 6 17 50q1 36 1 233q0 189 -3 238q-2 19 -14 24q-10 5 -43 9q-3 3 -2.5 14.5t3.5 16.5q45 4 106.5 16t85.5 22q3 -1 6 -6t2 -9q-9 -18 -11 -88q-1 -25 -1 -110v-132q0 -211 2 -240q2 -21 5.5 -28t17.5 -11q12 -4 35 -9
q2 -4 0 -16.5t-5 -17.5q-4 0 -21 0.5t-45.5 1.5t-61.5 1q-35 0 -71 -1.5t-39 -1.5zM142 -34q19 0 38 -21t19 -55q0 -52 -38 -85.5t-96 -44.5q-4 1 -9 13t-3 16q41 17 54.5 31.5t13.5 36.5q0 34 -57 52q-2 2 -2 10.5t2 10.5q11 11 34 23.5t44 12.5z" />
    <glyph glyph-name="uni013D" unicode="&#x13d;" horiz-adv-x="567" 
d="M27 572q-3 5 -1.5 18.5t4.5 15.5q15 0 59.5 -1.5t90.5 -1.5q37 0 148 3q3 -3 2.5 -16.5t-2.5 -17.5q-37 -6 -48 -9q-16 -5 -20.5 -13.5t-5.5 -29.5q-2 -32 -2 -182q-2 -188 3 -251q1 -24 19 -31q32 -7 127 -5q32 0 56 33q36 46 68 120q4 2 19.5 -3t16.5 -10
q-3 -23 -24 -89.5t-37 -92.5q-5 -14 -59 -14q-41 0 -135 2.5t-132 2.5q-44 0 -92 -1.5t-61 -1.5q-3 5 -3 18t3 16q38 5 58 10q24 8 28 41q4 44 4 232q0 169 -2 208q-2 34 -29 41q-6 2 -53 9zM493 633q8 0 8 -15q1 -27 -6.5 -92t-16.5 -93q-3 -9 -17 -22t-23 -18
q-2 -1 -5 1.5t-3 3.5q0 71 -15 186q0 5 3 8q6 7 36 24t39 17z" />
    <glyph glyph-name="uni013E" unicode="&#x13e;" horiz-adv-x="271" 
d="M17 -3q-3 4 -3.5 16.5t2.5 17.5q22 5 37 10q15 6 17 50q1 36 1 233q0 189 -3 238q-2 19 -14 24q-10 5 -43 9q-3 3 -2.5 14.5t3.5 16.5q45 4 106.5 16t85.5 22q3 -1 6 -6t2 -9q-9 -18 -11 -88q-1 -25 -1 -110v-132q0 -211 2 -240q2 -21 5.5 -28t17.5 -11q12 -4 35 -9
q2 -4 0 -16.5t-5 -17.5q-4 0 -21 0.5t-45.5 1.5t-61.5 1q-35 0 -71 -1.5t-39 -1.5zM333 667q8 0 8 -15q1 -27 -6.5 -92t-16.5 -93q-3 -9 -17 -22t-23 -18q-2 -1 -5 1.5t-3 3.5q0 71 -15 186q0 5 3 8q6 7 36 24t39 17z" />
    <glyph glyph-name="Ldot" unicode="&#x13f;" horiz-adv-x="567" 
d="M27 572q-3 5 -1.5 18.5t4.5 15.5q15 0 59.5 -1.5t90.5 -1.5q37 0 148 3q3 -3 2.5 -16.5t-2.5 -17.5q-37 -6 -48 -9q-16 -5 -20.5 -13.5t-5.5 -29.5q-2 -32 -2 -182q-2 -188 3 -251q1 -24 19 -31q32 -7 127 -5q32 0 56 33q36 46 68 120q4 2 19.5 -3t16.5 -10
q-3 -23 -24 -89.5t-37 -92.5q-5 -14 -59 -14q-41 0 -135 2.5t-132 2.5q-44 0 -92 -1.5t-61 -1.5q-3 5 -3 18t3 16q38 5 58 10q24 8 28 41q4 44 4 232q0 169 -2 208q-2 34 -29 41q-6 2 -53 9zM501 339q0 -35 -28 -56q-7 -7 -34.5 -9.5t-34.5 2.5q-24 12 -35 44q-5 35 6 47
q23 23 74 23q30 0 44 -14q8 -11 8 -37z" />
    <glyph glyph-name="ldot" unicode="&#x140;" horiz-adv-x="271" 
d="M329 349q0 -34 -24 -58q-6 -6 -29 -8.5t-29 1.5q-22 14 -29 45q-2 5 -1.5 23.5t5.5 24.5q20 24 63 24q26 0 37 -14q7 -14 7 -38zM17 -3q-3 4 -3.5 16.5t2.5 17.5q22 5 37 10q15 6 17 50q1 36 1 233q0 189 -3 238q-2 19 -14 24q-10 5 -43 9q-3 3 -2.5 14.5t3.5 16.5
q45 4 106.5 16t85.5 22q3 -1 6 -6t2 -9q-9 -18 -11 -88q-1 -25 -1 -110v-132q0 -211 2 -240q2 -21 5.5 -28t17.5 -11q12 -4 35 -9q2 -4 0 -16.5t-5 -17.5q-4 0 -21 0.5t-45.5 1.5t-61.5 1q-35 0 -71 -1.5t-39 -1.5z" />
    <glyph glyph-name="Lslash" unicode="&#x141;" horiz-adv-x="567" 
d="M21 31q38 5 58 10q24 8 28 41q3 43 4 164q-24 -10 -62 -26q-2 1 -4.5 20t-1.5 22q8 4 68 27v25q0 169 -2 208q-2 34 -29 41q-6 2 -53 9q-3 5 -1.5 18.5t4.5 15.5q15 0 59.5 -1.5t90.5 -1.5q37 0 148 3q3 -3 2.5 -16.5t-2.5 -17.5q-37 -6 -48 -9q-16 -5 -20.5 -13.5
t-5.5 -29.5q-2 -32 -2 -175l137 56q5 -3 5 -42q-9 -3 -28.5 -11t-54.5 -21.5t-59 -23.5q-2 -163 3 -216q1 -24 19 -31q32 -7 127 -5q32 0 56 33q41 55 68 120q4 2 19.5 -3.5t16.5 -10.5q-4 -26 -24.5 -90t-36.5 -91q-5 -14 -59 -14q-41 0 -135 2.5t-132 2.5q-44 0 -92 -1.5
t-61 -1.5q-3 5 -3 18t3 16z" />
    <glyph glyph-name="lslash" unicode="&#x142;" horiz-adv-x="281" 
d="M275 392l-65 -32q0 -252 2 -281q2 -20 5.5 -27.5t17.5 -11.5q22 -6 37 -9q2 -4 0.5 -16.5t-4.5 -17.5q-6 0 -47 1.5t-84 1.5q-19 0 -57.5 -1.5t-55.5 -1.5q-2 4 -2.5 17t1.5 17q22 4 41 10q14 7 16 50q0 10 0.5 106.5t0.5 106.5l-58 -26q-3 3 -3.5 19.5t3.5 18.5
q3 1 22.5 10t35.5 15q0 172 -3 221q-2 19 -14 24q-9 5 -44 9q-3 3 -2 15t3 16q45 4 107 16t86 22q2 -1 5 -7t3 -8q-9 -19 -11 -88v-160l61 28q2 -3 3.5 -19t-0.5 -18z" />
    <glyph glyph-name="uni0143" unicode="&#x143;" horiz-adv-x="715" 
d="M17 571q-2 3 -2 18t2 17q18 1 67 -1t80 -2q47 0 75 2q10 -21 37 -55q257 -326 289 -364q1 0 2 0.5t2 0.5q0 264 -5 318q-2 26 -11.5 38.5t-33.5 18.5q-22 5 -60 10q-3 3 -2.5 17.5t2.5 16.5q8 0 53 -1.5t82 -1.5q33 0 72.5 1.5t44.5 1.5q3 -2 3 -17t-3 -17q-26 -4 -39 -8
q-23 -7 -32 -19.5t-11 -43.5q-9 -112 -9 -369q0 -66 2 -138q-13 1 -49 1t-51 -2l-350 462q-5 5 -5 -1q-4 -221 2 -348q2 -31 13 -45t33 -19q9 -2 28.5 -5.5t29.5 -5.5q3 -2 3 -16t-4 -18q-17 0 -60 1.5t-67 1.5q-29 0 -73.5 -1.5t-57.5 -1.5q-3 4 -2.5 18t2.5 16q40 7 58 13
q30 9 34 57q10 87 10 390q0 21 -9.5 40t-27.5 25q-33 13 -62 15zM460 791q10 0 36.5 -21.5t31.5 -32.5q1 -1 1 -5.5t-1 -5.5q-13 -12 -93.5 -52t-87.5 -40q-3 0 -12 11t-9 16q27 29 73.5 75t60.5 55z" />
    <glyph glyph-name="uni0144" unicode="&#x144;" horiz-adv-x="536" 
d="M21 31q9 1 31 7q18 4 21 39q2 60 2 153q0 68 -2 78q-5 22 -47 37q0 22 5 30q103 12 168 44q4 -4 4 -8v-55q0 -2 2 -3t3 0q77 61 128 61q68 0 103 -54q27 -40 27 -118v-177q0 -11 8 -17q18 -13 48 -17q2 -4 0.5 -17t-5.5 -17q-1 0 -37.5 1.5t-77.5 1.5q-9 0 -111 -3
q-2 5 -2.5 18t2.5 16l26 7q15 5 17 28q2 21 2 102.5t-5 108.5q-7 31 -30 46q-16 11 -43 11q-24 0 -46 -13q-8 -5 -8 -16q0 -31 0.5 -117.5t1.5 -114.5q1 -30 22 -36q7 -2 28 -6q2 -3 1 -16.5t-3 -17.5q-117 3 -119 3q-47 0 -113 -3q-2 5 -2.5 17.5t1.5 16.5zM295 609
q8 4 49.5 6t50.5 -1q1 -1 2.5 -6.5t0.5 -7.5q-8 -15 -60.5 -78.5t-70.5 -80.5q-3 -2 -15.5 5.5t-13.5 11.5q49 134 57 151z" />
    <glyph glyph-name="uni0145" unicode="&#x145;" horiz-adv-x="715" 
d="M17 571q-2 3 -2 18t2 17q18 1 67 -1t80 -2q47 0 75 2q10 -21 37 -55q257 -326 289 -364q1 0 2 0.5t2 0.5q0 264 -5 318q-2 26 -11.5 38.5t-33.5 18.5q-22 5 -60 10q-3 3 -2.5 17.5t2.5 16.5q8 0 53 -1.5t82 -1.5q33 0 72.5 1.5t44.5 1.5q3 -2 3 -17t-3 -17q-26 -4 -39 -8
q-23 -7 -32 -19.5t-11 -43.5q-9 -112 -9 -369q0 -66 2 -138q-13 1 -49 1t-51 -2l-350 462q-5 5 -5 -1q-4 -221 2 -348q2 -31 13 -45t33 -19q9 -2 28.5 -5.5t29.5 -5.5q3 -2 3 -16t-4 -18q-17 0 -60 1.5t-67 1.5q-29 0 -73.5 -1.5t-57.5 -1.5q-3 4 -2.5 18t2.5 16q40 7 58 13
q30 9 34 57q10 87 10 390q0 21 -9.5 40t-27.5 25q-33 13 -62 15zM376 -28q19 0 38 -21t19 -55q0 -52 -38 -85.5t-96 -44.5q-4 1 -9 13t-3 16q41 17 54.5 31.5t13.5 36.5q0 34 -57 52q-2 2 -2 10.5t2 10.5q11 11 34 23.5t44 12.5z" />
    <glyph glyph-name="uni0146" unicode="&#x146;" horiz-adv-x="536" 
d="M21 31q9 1 31 7q18 4 21 39q2 60 2 153q0 68 -2 78q-5 22 -47 37q0 22 5 30q103 12 168 44q4 -4 4 -8v-55q0 -2 2 -3t3 0q77 61 128 61q68 0 103 -54q27 -40 27 -118v-177q0 -11 8 -17q18 -13 48 -17q2 -4 0.5 -17t-5.5 -17q-1 0 -37.5 1.5t-77.5 1.5q-9 0 -111 -3
q-2 5 -2.5 18t2.5 16l26 7q15 5 17 28q2 21 2 102.5t-5 108.5q-7 31 -30 46q-16 11 -43 11q-24 0 -46 -13q-8 -5 -8 -16q0 -31 0.5 -117.5t1.5 -114.5q1 -30 22 -36q7 -2 28 -6q2 -3 1 -16.5t-3 -17.5q-117 3 -119 3q-47 0 -113 -3q-2 5 -2.5 17.5t1.5 16.5zM280 -37
q19 0 38 -21t19 -55q0 -52 -38 -85.5t-96 -44.5q-4 1 -9 13t-3 16q41 17 54.5 31.5t13.5 36.5q0 34 -57 52q-2 2 -2 10.5t2 10.5q11 11 34 23.5t44 12.5z" />
    <glyph glyph-name="uni0147" unicode="&#x147;" horiz-adv-x="715" 
d="M17 571q-2 3 -2 18t2 17q18 1 67 -1t80 -2q47 0 75 2q10 -21 37 -55q257 -326 289 -364q1 0 2 0.5t2 0.5q0 264 -5 318q-2 26 -11.5 38.5t-33.5 18.5q-22 5 -60 10q-3 3 -2.5 17.5t2.5 16.5q8 0 53 -1.5t82 -1.5q33 0 72.5 1.5t44.5 1.5q3 -2 3 -17t-3 -17q-26 -4 -39 -8
q-23 -7 -32 -19.5t-11 -43.5q-9 -112 -9 -369q0 -66 2 -138q-13 1 -49 1t-51 -2l-350 462q-5 5 -5 -1q-4 -221 2 -348q2 -31 13 -45t33 -19q9 -2 28.5 -5.5t29.5 -5.5q3 -2 3 -16t-4 -18q-17 0 -60 1.5t-67 1.5q-29 0 -73.5 -1.5t-57.5 -1.5q-3 4 -2.5 18t2.5 16q40 7 58 13
q30 9 34 57q10 87 10 390q0 21 -9.5 40t-27.5 25q-33 13 -62 15zM378 636q-8 -6 -21 -6q-9 9 -63 53.5t-76 60.5q0 4 7.5 15.5t9.5 11.5q5 0 61.5 -23t68.5 -30q4 -2 9 0q17 9 66.5 31t53.5 22t10.5 -11t4.5 -15q-24 -18 -72.5 -57.5t-58.5 -51.5z" />
    <glyph glyph-name="uni0148" unicode="&#x148;" horiz-adv-x="536" 
d="M21 31q9 1 31 7q18 4 21 39q2 60 2 153q0 68 -2 78q-5 22 -47 37q0 22 5 30q103 12 168 44q4 -4 4 -8v-55q0 -2 2 -3t3 0q77 61 128 61q68 0 103 -54q27 -40 27 -118v-177q0 -11 8 -17q18 -13 48 -17q2 -4 0.5 -17t-5.5 -17q-1 0 -37.5 1.5t-77.5 1.5q-9 0 -111 -3
q-2 5 -2.5 18t2.5 16l26 7q15 5 17 28q2 21 2 102.5t-5 108.5q-7 31 -30 46q-16 11 -43 11q-24 0 -46 -13q-8 -5 -8 -16q0 -31 0.5 -117.5t1.5 -114.5q1 -30 22 -36q7 -2 28 -6q2 -3 1 -16.5t-3 -17.5q-117 3 -119 3q-47 0 -113 -3q-2 5 -2.5 17.5t1.5 16.5zM278 532
q42 71 56 81q23 11 47 9q1 0 2.5 -3t0.5 -5q-16 -23 -49.5 -79t-44.5 -81q-1 -3 -18 -8t-21 -5q-15 35 -47.5 88.5t-48.5 76.5q2 5 23.5 12.5t30.5 6.5q7 -1 27.5 -33t35.5 -60q3 -2 6 0z" />
    <glyph glyph-name="uni0149" unicode="&#x149;" horiz-adv-x="536" 
d="M21 31q9 1 31 7q18 4 21 39q2 60 2 153q0 68 -2 78q-5 22 -47 37q0 22 5 30q103 12 168 44q4 -4 4 -8v-55q0 -2 2 -3t3 0q77 61 128 61q68 0 103 -54q27 -40 27 -118v-177q0 -11 8 -17q18 -13 48 -17q2 -4 0.5 -17t-5.5 -17q-1 0 -37.5 1.5t-77.5 1.5q-9 0 -111 -3
q-2 5 -2.5 18t2.5 16l26 7q15 5 17 28q2 21 2 102.5t-5 108.5q-7 31 -30 46q-16 11 -43 11q-24 0 -46 -13q-8 -5 -8 -16q0 -31 0.5 -117.5t1.5 -114.5q1 -30 22 -36q7 -2 28 -6q2 -3 1 -16.5t-3 -17.5q-117 3 -119 3q-47 0 -113 -3q-2 5 -2.5 17.5t1.5 16.5zM128 626
q22 0 40.5 -21t18.5 -54q0 -41 -32 -70t-83 -39q-12 8 -10 27q35 15 47 27t12 29q0 31 -60 44q-5 11 0 20q8 12 30 24.5t37 12.5z" />
    <glyph glyph-name="Eng" unicode="&#x14a;" horiz-adv-x="715" 
d="M14 31q38 7 57 13q31 10 35 57q10 87 10 391q0 20 -9.5 39t-27.5 25q-33 13 -62 15q-2 3 -2 18t2 17q22 1 75 -1t77 -2q42 0 70 2q11 -23 37 -56l290 -355q1 0 2 0.5t2 0.5q0 246 -6 311q-2 26 -11 38t-33 18q-34 7 -61 10q-3 3 -2.5 17.5t2.5 16.5q19 0 62.5 -1.5
t69.5 -1.5q20 0 64 1.5t56 1.5q2 -2 2 -17t-2 -17q-26 -4 -39 -8q-23 -7 -32 -19.5t-11 -42.5q-8 -99 -8 -353q-1 -78 -1 -93q0 -132 -39 -210.5t-116 -78.5q-37 0 -52 21q-6 8 -7.5 38.5t3.5 44.5l7 4q29 -16 76 -16q31 0 47.5 20.5t16.5 52.5q0 22 -25 60q-19 26 -359 463
q-5 5 -5 -1q-4 -221 2 -348q1 -31 12.5 -45t33.5 -19q9 -2 58 -11q2 -2 1.5 -15.5t-2.5 -18.5q-17 0 -59 1.5t-66 1.5q-29 0 -74.5 -1.5t-58.5 -1.5q-3 4 -2.5 18t2.5 16z" />
    <glyph glyph-name="eng" unicode="&#x14b;" horiz-adv-x="529" 
d="M20 31q12 2 32 7q18 4 21 39q2 60 2 153q0 67 -1 77q-2 22 -48 38q0 22 5 30q101 11 168 44l4 -8v-55q0 -2 2 -3t3 0q74 61 127 61q66 0 103 -54q28 -43 28 -124q0 -131 -1 -174q-4 -89 -24.5 -139.5t-59.5 -97.5q-27 -33 -65 -57t-65 -24q-38 0 -53 17q-2 9 2.5 39
t10.5 44q59 -35 91 -35q17 0 24 19t9 68q1 25 1 155q3 151 -7 218q-6 39 -31 54q-17 12 -43 12q-16 0 -42 -12q-9 -5 -9 -19q0 -12 1 -105t2 -126q1 -19 5.5 -26t16.5 -10q7 -2 28 -6q2 -3 0.5 -16.5t-3.5 -17.5q-117 3 -119 3q-21 0 -114 -3q-2 5 -2.5 17.5t1.5 16.5z" />
    <glyph glyph-name="uni014C" unicode="&#x14c;" horiz-adv-x="757" 
d="M378 -18q-155 0 -244 91q-84 90 -84 229q0 144 92 225q94 94 246 94q150 0 234 -89t84 -221q0 -123 -60 -202q-95 -127 -268 -127zM408 27q44 0 76 32q61 58 61 218q0 82 -22 154t-66 111q-42 36 -95 36q-47 0 -76 -23q-75 -55 -75 -221q0 -77 23 -152t72 -117
q46 -38 102 -38zM270 746q20 -2 60 -2h187q0 -11 -9 -37.5t-12 -27.5q-16 -3 -208 -3l-38 2q1 8 9.5 36.5t10.5 31.5z" />
    <glyph glyph-name="uni014D" unicode="&#x14d;" horiz-adv-x="520" 
d="M267 414q102 0 159.5 -59t57.5 -150q0 -122 -91 -179q-61 -38 -137 -38q-109 0 -164.5 60t-55.5 155q0 113 90 171q62 40 141 40zM244 374q-13 0 -27 -9q-39 -29 -39 -132q0 -100 27 -153t69 -53q20 0 31 11q35 31 35 139q0 91 -25 144t-71 53zM157 556q18 -2 48 -2h74
h72.5h28.5q0 -11 -7 -38t-10 -28q-14 -3 -188 -3q-29 0 -35 2q1 8 8 37.5t9 31.5z" />
    <glyph glyph-name="uni014E" unicode="&#x14e;" horiz-adv-x="757" 
d="M378 -18q-155 0 -244 91q-84 90 -84 229q0 144 92 225q94 94 246 94q150 0 234 -89t84 -221q0 -123 -60 -202q-95 -127 -268 -127zM408 27q44 0 76 32q61 58 61 218q0 82 -22 154t-66 111q-42 36 -95 36q-47 0 -76 -23q-75 -55 -75 -221q0 -77 23 -152t72 -117
q46 -38 102 -38zM388 724q52 0 90 46q2 2 14 8.5t15 6.5q9 0 8 -6q-15 -48 -57.5 -82.5t-97.5 -34.5q-52 0 -83.5 22.5t-31.5 55.5q0 9 11 24t21 21q2 1 7 0.5t6 -2.5q11 -30 33.5 -44.5t64.5 -14.5z" />
    <glyph glyph-name="uni014F" unicode="&#x14f;" horiz-adv-x="520" 
d="M267 414q102 0 159.5 -59t57.5 -150q0 -122 -91 -179q-61 -38 -137 -38q-109 0 -164.5 60t-55.5 155q0 113 90 171q62 40 141 40zM244 374q-13 0 -27 -9q-39 -29 -39 -132q0 -100 27 -153t69 -53q20 0 31 11q35 31 35 139q0 91 -25 144t-71 53zM270 525q53 0 87 52
q2 2 13 9t13 7q8 0 8 -7q-11 -54 -50 -90.5t-97 -36.5q-46 0 -77.5 24.5t-31.5 62.5q0 10 13.5 25t27.5 23q1 1 6 0.5t6 -2.5q12 -67 82 -67z" />
    <glyph glyph-name="uni0150" unicode="&#x150;" horiz-adv-x="757" 
d="M378 -18q-155 0 -244 91q-84 90 -84 229q0 144 92 225q94 94 246 94q150 0 234 -89t84 -221q0 -123 -60 -202q-95 -127 -268 -127zM408 27q44 0 76 32q61 58 61 218q0 82 -22 154t-66 111q-42 36 -95 36q-47 0 -76 -23q-75 -55 -75 -221q0 -77 23 -152t72 -117
q46 -38 102 -38zM307 777q9 5 45 8.5t47 1.5q2 -1 3.5 -5.5t-0.5 -6.5q-4 -11 -39.5 -57.5t-50.5 -63.5q-2 -1 -16 3.5t-15 6.5q12 81 26 113zM454 790q10 5 47 8t47 1q2 -1 3.5 -5.5t0.5 -6.5q-6 -14 -44 -64.5t-53 -64.5q-3 -2 -17 3t-16 8q24 100 32 121z" />
    <glyph glyph-name="uni0151" unicode="&#x151;" horiz-adv-x="520" 
d="M267 414q102 0 159.5 -59t57.5 -150q0 -122 -91 -179q-61 -38 -137 -38q-109 0 -164.5 60t-55.5 155q0 113 90 171q62 40 141 40zM244 374q-13 0 -27 -9q-39 -29 -39 -132q0 -100 27 -153t69 -53q20 0 31 11q35 31 35 139q0 91 -25 144t-71 53zM201 609q9 3 40.5 5
t40.5 -1q1 -1 2 -6.5t0 -6.5q-26 -48 -95 -152q-5 -1 -16 2.5t-12 7.5q22 95 40 151zM340 621q10 3 39.5 4t40.5 -2q3 -3 1 -13q-13 -25 -46.5 -80t-49.5 -76q-4 -1 -15.5 2t-12.5 7q4 14 14 53t17.5 67t11.5 38z" />
    <glyph glyph-name="OE" unicode="&#x152;" horiz-adv-x="1011" 
d="M902 -4q-42 0 -207.5 2t-167.5 2q-25 0 -40 -5q-52 -13 -108 -13q-155 0 -242 90q-87 91 -87 230q0 144 92 224q93 95 248 95q44 0 87 -8q28 -6 65 -10h268q92 0 129 6l4 -4q-7 -29 -14 -151q-4 -4 -19 -4.5t-19 2.5q-9 50 -20 72q-12 24 -42 28q-19 2 -111.5 3
t-109.5 -1q-2 0 -3.5 -2t-0.5 -3q91 -75 98 -211q0 -6 5 -6q93 0 108 1t22.5 8.5t12.5 25.5l8 38q4 3 20 2t21 -4q0 -4 -2.5 -41t-2.5 -56q0 -41 3 -101q-6 -3 -21 -4t-19 3q-4 14 -6 25t-4 17q-9 25 -34 27q-12 1 -56.5 2t-52.5 0q-4 0 -4 -6q-6 -125 -95 -203
q-3 -3 -2 -6.5t5 -4.5q75 -6 221 -6q34 0 50 6t30 26q33 43 52 91q5 1 20 -4t17 -9q-12 -66 -34 -130q-9 -25 -17.5 -29t-44.5 -4zM409 26q44 0 74 30q62 62 62 222q0 187 -88 264q-45 37 -99 37q-42 0 -71 -24q-77 -56 -77 -221q0 -76 24.5 -152t72.5 -119q45 -37 102 -37z
" />
    <glyph glyph-name="oe" unicode="&#x153;" horiz-adv-x="763" 
d="M246 374q-15 0 -28 -10q-41 -30 -41 -130q0 -101 29 -152.5t72 -51.5q21 0 33 10q35 28 35 136q0 91 -26 144.5t-74 53.5zM412 42q-2 2 -3 0q-67 -54 -152 -54q-109 0 -165 60t-56 155q0 112 89 170q63 41 140 41q86 -1 146 -53q5 -5 10 1q69 52 142 52q37 0 66 -13.5
t45.5 -34.5t25 -39t10.5 -33q7 -13 18 -17q0 -13 -7 -24q-11 -3 -237 -30q-5 -3 -5 -11q3 -60 41 -98q37 -37 96 -37q63 0 116 42q3 -2 4 -16.5t-1 -18.5q-32 -42 -86 -69t-104 -27q-79 0 -133 54zM531 375q-25 0 -41.5 -32.5t-14.5 -76.5q0 -1 2 -4t5 -2q102 11 108 13
q7 2 7 9q-3 34 -21 63.5t-45 29.5z" />
    <glyph glyph-name="uni0154" unicode="&#x154;" horiz-adv-x="640" 
d="M29 572q-3 4 -2 18.5t5 15.5q10 0 64.5 -1.5t75.5 -1.5q40 0 101.5 1.5t88.5 1.5q90 0 140 -42t50 -111q0 -105 -117 -151q-3 -3 -1 -8q17 -33 71.5 -110t87.5 -109q26 -26 40 -32.5t52 -10.5q2 -2 -1 -18t-6 -18q-48 -4 -110.5 0.5t-91.5 17.5q-33 16 -50 42
q-14 17 -32 43.5t-30 47t-31.5 53.5t-25.5 43q-11 17 -29 18h-24q-4 0 -4 -6q0 -81 2 -167q1 -22 7 -32.5t21 -14.5t53 -10q4 -1 3 -17t-5 -17q-4 0 -53 1.5t-96 1.5q-49 0 -97.5 -1.5t-51.5 -1.5q-3 3 -4 17t3 17q22 2 46 8q16 4 22 15t7 34q3 47 3 228q0 158 -2 202
q-1 39 -28 45q-25 6 -51 9zM286 563q-18 0 -27 -4q-7 -5 -7 -15q-2 -22 -2 -228q0 -8 6 -8q80 -4 108 12q45 22 45 102q0 63 -33 102t-90 39zM378 797q10 0 36.5 -21.5t31.5 -32.5q1 -1 1 -5.5t-1 -5.5q-13 -12 -93.5 -52t-87.5 -40q-3 0 -12 11t-9 16q27 29 73.5 75
t60.5 55z" />
    <glyph glyph-name="uni0155" unicode="&#x155;" horiz-adv-x="376" 
d="M319 414q43 0 57 -30q3 -6 0 -22q-2 -13 -17 -45t-27 -46q-2 -2 -7 -3t-7 0q-38 42 -79 42q-19 0 -29 -10q-6 -4 -6 -15q-1 -39 -0.5 -114.5t1.5 -85.5q2 -24 6.5 -32t20.5 -12q14 -5 51 -10q2 -3 0 -17t-5 -17q-4 0 -52 1.5t-92 1.5q-27 0 -66 -1.5t-50 -1.5q-2 5 -2 18
t2 16q26 4 39 9q15 5 16 32q4 38 2 153q0 65 -2 81q-1 7 -3.5 12.5t-14 13.5t-32.5 15q-1 5 1 16t4 12q33 3 87 16t81 28q5 0 8 -6q-4 -48 -4 -76q1 -4 5 -2q31 34 58 56q27 23 56 23zM224 609q8 4 49.5 6t50.5 -1q1 -1 2.5 -6.5t0.5 -7.5q-8 -15 -60.5 -78.5t-70.5 -80.5
q-3 -2 -15.5 5.5t-13.5 11.5q49 134 57 151z" />
    <glyph glyph-name="uni0156" unicode="&#x156;" horiz-adv-x="640" 
d="M29 572q-3 4 -2 18.5t5 15.5q10 0 64.5 -1.5t75.5 -1.5q40 0 101.5 1.5t88.5 1.5q90 0 140 -42t50 -111q0 -105 -117 -151q-3 -3 -1 -8q17 -33 71.5 -110t87.5 -109q26 -26 40 -32.5t52 -10.5q2 -2 -1 -18t-6 -18q-48 -4 -110.5 0.5t-91.5 17.5q-33 16 -50 42
q-14 17 -32 43.5t-30 47t-31.5 53.5t-25.5 43q-11 17 -29 18h-24q-4 0 -4 -6q0 -81 2 -167q1 -22 7 -32.5t21 -14.5t53 -10q4 -1 3 -17t-5 -17q-4 0 -53 1.5t-96 1.5q-49 0 -97.5 -1.5t-51.5 -1.5q-3 3 -4 17t3 17q22 2 46 8q16 4 22 15t7 34q3 47 3 228q0 158 -2 202
q-1 39 -28 45q-25 6 -51 9zM286 563q-18 0 -27 -4q-7 -5 -7 -15q-2 -22 -2 -228q0 -8 6 -8q80 -4 108 12q45 22 45 102q0 63 -33 102t-90 39zM364 -30q19 0 38 -21t19 -55q0 -52 -38 -85.5t-96 -44.5q-4 1 -9 13t-3 16q41 17 54.5 31.5t13.5 36.5q0 34 -57 52q-2 2 -2 10.5
t2 10.5q11 11 34 23.5t44 12.5z" />
    <glyph glyph-name="uni0157" unicode="&#x157;" horiz-adv-x="376" 
d="M319 414q43 0 57 -30q3 -6 0 -22q-2 -13 -17 -45t-27 -46q-2 -2 -7 -3t-7 0q-38 42 -79 42q-19 0 -29 -10q-6 -4 -6 -15q-1 -39 -0.5 -114.5t1.5 -85.5q2 -24 6.5 -32t20.5 -12q14 -5 51 -10q2 -3 0 -17t-5 -17q-4 0 -52 1.5t-92 1.5q-27 0 -66 -1.5t-50 -1.5q-2 5 -2 18
t2 16q26 4 39 9q15 5 16 32q4 38 2 153q0 65 -2 81q-1 7 -3.5 12.5t-14 13.5t-32.5 15q-1 5 1 16t4 12q33 3 87 16t81 28q5 0 8 -6q-4 -48 -4 -76q1 -4 5 -2q31 34 58 56q27 23 56 23zM147 -33q19 0 38 -21t19 -55q0 -52 -38 -85.5t-96 -44.5q-4 1 -9 13t-3 16
q41 17 54.5 31.5t13.5 36.5q0 34 -57 52q-2 2 -2 10.5t2 10.5q11 11 34 23.5t44 12.5z" />
    <glyph glyph-name="uni0158" unicode="&#x158;" horiz-adv-x="640" 
d="M29 572q-3 4 -2 18.5t5 15.5q10 0 64.5 -1.5t75.5 -1.5q40 0 101.5 1.5t88.5 1.5q90 0 140 -42t50 -111q0 -105 -117 -151q-3 -3 -1 -8q17 -33 71.5 -110t87.5 -109q26 -26 40 -32.5t52 -10.5q2 -2 -1 -18t-6 -18q-48 -4 -110.5 0.5t-91.5 17.5q-33 16 -50 42
q-14 17 -32 43.5t-30 47t-31.5 53.5t-25.5 43q-11 17 -29 18h-24q-4 0 -4 -6q0 -81 2 -167q1 -22 7 -32.5t21 -14.5t53 -10q4 -1 3 -17t-5 -17q-4 0 -53 1.5t-96 1.5q-49 0 -97.5 -1.5t-51.5 -1.5q-3 3 -4 17t3 17q22 2 46 8q16 4 22 15t7 34q3 47 3 228q0 158 -2 202
q-1 39 -28 45q-25 6 -51 9zM286 563q-18 0 -27 -4q-7 -5 -7 -15q-2 -22 -2 -228q0 -8 6 -8q80 -4 108 12q45 22 45 102q0 63 -33 102t-90 39zM304 646q-8 -6 -21 -6q-9 9 -63 53.5t-76 60.5q0 4 7.5 15.5t9.5 11.5q5 0 61.5 -23t68.5 -30q4 -2 9 0q17 9 66.5 31t53.5 22
t10.5 -11t4.5 -15q-24 -18 -72.5 -57.5t-58.5 -51.5z" />
    <glyph glyph-name="uni0159" unicode="&#x159;" horiz-adv-x="376" 
d="M319 414q43 0 57 -30q3 -6 0 -22q-2 -13 -17 -45t-27 -46q-2 -2 -7 -3t-7 0q-38 42 -79 42q-19 0 -29 -10q-6 -4 -6 -15q-1 -39 -0.5 -114.5t1.5 -85.5q2 -24 6.5 -32t20.5 -12q14 -5 51 -10q2 -3 0 -17t-5 -17q-4 0 -52 1.5t-92 1.5q-27 0 -66 -1.5t-50 -1.5q-2 5 -2 18
t2 16q26 4 39 9q15 5 16 32q4 38 2 153q0 65 -2 81q-1 7 -3.5 12.5t-14 13.5t-32.5 15q-1 5 1 16t4 12q33 3 87 16t81 28q5 0 8 -6q-4 -48 -4 -76q1 -4 5 -2q31 34 58 56q27 23 56 23zM202 532q42 71 56 81q23 11 47 9q1 0 2.5 -3t0.5 -5q-16 -23 -49.5 -79t-44.5 -81
q-1 -3 -18 -8t-21 -5q-15 35 -47.5 88.5t-48.5 76.5q2 5 23.5 12.5t30.5 6.5q7 -1 27.5 -33t35.5 -60q3 -2 6 0z" />
    <glyph glyph-name="uni015A" unicode="&#x15a;" horiz-adv-x="499" 
d="M71 186q30 -94 85 -136q37 -27 91 -27q37 0 60.5 21t23.5 57q0 37 -22.5 65t-89.5 69q-41 26 -62 41t-47 40.5t-37 55.5t-11 68q0 85 61 133t152 48q45 0 102 -8t65 -9q-12 -63 -17 -148q-4 -4 -17.5 -4t-17.5 2q-12 83 -46 107q-28 23 -75 23q-39 0 -62.5 -24t-23.5 -60
q0 -55 62 -97l111 -68q57 -35 82 -72t25 -90q0 -83 -64 -137t-176 -54q-93 0 -155 32q-8 11 -19.5 72t-12.5 89q2 4 16 8.5t19 2.5zM347 808q10 0 36.5 -21.5t31.5 -32.5q1 -1 1 -5.5t-1 -5.5q-13 -12 -93.5 -52t-87.5 -40q-3 0 -12 11t-9 16q27 29 73.5 75t60.5 55z" />
    <glyph glyph-name="uni015B" unicode="&#x15b;" horiz-adv-x="382" 
d="M331 402q-6 -28 -12 -120q-4 -2 -17 -2.5t-16 0.5q-13 66 -44 86q-19 11 -43 11q-21 0 -35 -12t-14 -30q0 -22 17.5 -38t79.5 -45q58 -26 81 -54t23 -70q0 -63 -52.5 -101t-126.5 -38q-64 0 -126 20q-10 50 -14 125q2 2 16 6.5t18 3.5q23 -77 65 -102q24 -15 54 -15
q24 0 38 11.5t14 29.5q0 20 -14 34t-49 31q-76 36 -104 68.5t-28 79.5q0 57 44 94.5t125 37.5q38 0 71 -5q37 -6 49 -6zM209 609q8 4 49.5 6t50.5 -1q1 -1 2.5 -6.5t0.5 -7.5q-8 -15 -60.5 -78.5t-70.5 -80.5q-3 -2 -15.5 5.5t-13.5 11.5q49 134 57 151z" />
    <glyph glyph-name="uni015C" unicode="&#x15c;" horiz-adv-x="499" 
d="M71 186q30 -94 85 -136q37 -27 91 -27q37 0 60.5 21t23.5 57q0 37 -22.5 65t-89.5 69q-41 26 -62 41t-47 40.5t-37 55.5t-11 68q0 85 61 133t152 48q45 0 102 -8t65 -9q-12 -63 -17 -148q-4 -4 -17.5 -4t-17.5 2q-12 83 -46 107q-28 23 -75 23q-39 0 -62.5 -24t-23.5 -60
q0 -55 62 -97l111 -68q57 -35 82 -72t25 -90q0 -83 -64 -137t-176 -54q-93 0 -155 32q-8 11 -19.5 72t-12.5 89q2 4 16 8.5t19 2.5zM254 782q9 6 21 6q9 -9 63 -53.5t76 -60.5q0 -4 -7.5 -15.5t-9.5 -11.5q-5 0 -60.5 22.5t-69.5 29.5q-4 2 -9 0q-17 -9 -66.5 -30.5
t-53.5 -21.5t-10.5 11t-4.5 15q26 19 73.5 58t57.5 51z" />
    <glyph glyph-name="uni015D" unicode="&#x15d;" horiz-adv-x="382" 
d="M331 402q-6 -28 -12 -120q-4 -2 -17 -2.5t-16 0.5q-13 66 -44 86q-19 11 -43 11q-21 0 -35 -12t-14 -30q0 -22 17.5 -38t79.5 -45q58 -26 81 -54t23 -70q0 -63 -52.5 -101t-126.5 -38q-64 0 -126 20q-10 50 -14 125q2 2 16 6.5t18 3.5q23 -77 65 -102q24 -15 54 -15
q24 0 38 11.5t14 29.5q0 20 -14 34t-49 31q-76 36 -104 68.5t-28 79.5q0 57 44 94.5t125 37.5q38 0 71 -5q37 -6 49 -6zM186 535q-41 -70 -56 -79q-7 -4 -23 -7.5t-24 -2.5q-6 3 -3 8q17 23 50 79t43 80q1 3 18.5 8.5t21.5 5.5q15 -35 47.5 -90t47.5 -74q-2 -4 -23 -12
t-30 -8q-7 2 -28 33.5t-35 58.5q-3 1 -6 0z" />
    <glyph glyph-name="uni015E" unicode="&#x15e;" horiz-adv-x="499" 
d="M71 186q30 -94 84 -136q38 -27 92 -27q37 0 60.5 21t23.5 57q0 37 -22.5 65t-89.5 69q-41 26 -62 41t-47 40.5t-37 55.5t-11 68q0 85 61 133t152 48q59 0 104 -8q12 -2 26 -3.5t22 -3t15 -1.5q-12 -63 -17 -148q-4 -4 -17.5 -4t-17.5 3q-13 80 -45 105q-30 23 -76 23
q-38 0 -62 -24t-24 -60q0 -55 62 -97q23 -15 64 -39.5t47 -28.5q57 -35 82 -72t25 -90q0 -75 -52.5 -127t-147.5 -62l-16 -26q21 -11 45 -28q27 -21 27 -54q0 -45 -43 -75t-76 -30q-42 0 -62 31q0 1 4 25q33 -17 65 -17q40 0 40 32q0 39 -77 63q1 6 3 9l51 68
q-42 0 -86.5 9.5t-69.5 22.5q-8 11 -19.5 72t-12.5 89q2 4 16 8.5t19 2.5z" />
    <glyph glyph-name="uni015F" unicode="&#x15f;" horiz-adv-x="382" 
d="M331 402q-6 -28 -12 -119q-4 -2 -17 -2.5t-16 0.5q-13 67 -43 85q-19 11 -43 11q-21 0 -35.5 -12.5t-14.5 -29.5q0 -22 17.5 -38t79.5 -45q58 -26 81 -54t23 -70q0 -56 -41 -91.5t-98 -43.5l-21 -29q28 -14 44 -29q25 -21 25 -51q0 -41 -41.5 -70t-72.5 -29q-40 0 -58 29
q-3 17 4 27q34 -16 62 -16q38 0 38 29q0 34 -73 57q0 6 1 10l54 68q-66 0 -128 20q-10 51 -14 123q2 2 16 6.5t18 3.5q23 -76 63 -100q25 -15 56 -15q24 0 38 11.5t14 29.5q0 20 -14 34t-49 31q-76 36 -104 68.5t-28 79.5q0 57 44 94.5t125 37.5q38 0 71 -5q37 -6 49 -6z
" />
    <glyph glyph-name="Scaron" unicode="&#x160;" horiz-adv-x="499" 
d="M71 186q30 -94 85 -136q37 -27 91 -27q37 0 60.5 21t23.5 57q0 37 -22.5 65t-89.5 69q-41 26 -62 41t-47 40.5t-37 55.5t-11 68q0 85 61 133t152 48q45 0 102 -8t65 -9q-12 -63 -17 -148q-4 -4 -17.5 -4t-17.5 2q-12 83 -46 107q-28 23 -75 23q-39 0 -62.5 -24t-23.5 -60
q0 -55 62 -97l111 -68q57 -35 82 -72t25 -90q0 -83 -64 -137t-176 -54q-93 0 -155 32q-8 11 -19.5 72t-12.5 89q2 4 16 8.5t19 2.5zM284 657q-8 -6 -21 -6q-9 9 -63 53.5t-76 60.5q0 4 7.5 15.5t9.5 11.5q5 0 61.5 -23t68.5 -30q4 -2 9 0q17 9 66.5 31t53.5 22t10.5 -11
t4.5 -15q-24 -18 -72.5 -57.5t-58.5 -51.5z" />
    <glyph glyph-name="scaron" unicode="&#x161;" horiz-adv-x="382" 
d="M331 402q-6 -28 -12 -120q-4 -2 -17 -2.5t-16 0.5q-13 66 -44 86q-19 11 -43 11q-21 0 -35 -12t-14 -30q0 -22 17.5 -38t79.5 -45q58 -26 81 -54t23 -70q0 -63 -52.5 -101t-126.5 -38q-64 0 -126 20q-10 50 -14 125q2 2 16 6.5t18 3.5q23 -77 65 -102q24 -15 54 -15
q24 0 38 11.5t14 29.5q0 20 -14 34t-49 31q-76 36 -104 68.5t-28 79.5q0 57 44 94.5t125 37.5q38 0 71 -5q37 -6 49 -6zM206 532q42 71 56 81q23 11 47 9q1 0 2.5 -3t0.5 -5q-16 -23 -49.5 -79t-44.5 -81q-1 -3 -18 -8t-21 -5q-15 35 -47.5 88.5t-48.5 76.5q2 5 23.5 12.5
t30.5 6.5q7 -1 27.5 -33t35.5 -60q3 -2 6 0z" />
    <glyph glyph-name="uni0162" unicode="&#x162;" horiz-adv-x="642" 
d="M482 31q3 -3 2 -17t-4 -17q-16 0 -70 1.5t-92 1.5q-53 0 -110 -1.5t-66 -1.5q-4 4 -4 17.5t4 16.5q52 6 64 10q20 5 27.5 17t9.5 44q3 76 3 441q0 8 -5 8q-14 1 -46.5 1t-49.5 -1q-31 -1 -49 -36q-21 -41 -36 -85q-3 -2 -19.5 1.5t-18.5 8.5q15 75 21 170q0 2 3.5 4.5
t5.5 1.5q38 -13 92 -13h354q74 0 113 12q6 0 6 -8q-16 -66 -24 -174q-3 -3 -19 -3.5t-18 1.5q-8 54 -20 89q-11 28 -39 31q-45 5 -105 1q-4 -2 -4 -8q0 -413 2 -455q2 -37 25 -46q12 -4 67 -12zM323 -35q19 0 38 -21t19 -55q0 -52 -38 -85.5t-96 -44.5q-4 1 -9 13t-3 16
q41 17 54.5 31.5t13.5 36.5q0 34 -57 52q-2 2 -2 10.5t2 10.5q11 11 34 23.5t44 12.5z" />
    <glyph glyph-name="uni0163" unicode="&#x163;" horiz-adv-x="320" 
d="M301 339q-30 1 -99 1q-4 0 -4 -6q0 -18 -0.5 -74.5t-0.5 -81.5q0 -55 4 -75q2 -17 15.5 -28t35.5 -11q31 0 54 14q2 -3 1.5 -16t-2.5 -19q-41 -54 -120 -54q-75 0 -103 48q-10 19 -12.5 40t-2.5 71q0 26 0.5 94t0.5 88q0 8 -6 10q-7 1 -24 2t-24 2q0 21 9 41q31 7 40 11
q3 0 5 8v85q23 7 61 25t50 28q15 4 23 2q-4 -31 -4 -136q0 -8 4 -8q1 0 109 4q-9 -52 -10 -65zM188 -38q19 0 38 -21t19 -55q0 -52 -38 -85.5t-96 -44.5q-4 1 -9 13t-3 16q41 17 54.5 31.5t13.5 36.5q0 34 -57 52q-2 2 -2 10.5t2 10.5q11 11 34 23.5t44 12.5z" />
    <glyph glyph-name="uni0164" unicode="&#x164;" horiz-adv-x="642" 
d="M482 31q3 -3 2 -17t-4 -17q-16 0 -70 1.5t-92 1.5q-53 0 -110 -1.5t-66 -1.5q-4 4 -4 17.5t4 16.5q52 6 64 10q20 5 27.5 17t9.5 44q3 76 3 441q0 8 -5 8q-14 1 -46.5 1t-49.5 -1q-31 -1 -49 -36q-21 -41 -36 -85q-3 -2 -19.5 1.5t-18.5 8.5q15 75 21 170q0 2 3.5 4.5
t5.5 1.5q38 -13 92 -13h354q74 0 113 12q6 0 6 -8q-16 -66 -24 -174q-3 -3 -19 -3.5t-18 1.5q-8 54 -20 89q-11 28 -39 31q-45 5 -105 1q-4 -2 -4 -8q0 -413 2 -455q2 -37 25 -46q12 -4 67 -12zM333 644q-8 -6 -21 -6q-9 9 -63 53.5t-76 60.5q0 4 7.5 15.5t9.5 11.5
q5 0 61.5 -23t68.5 -30q4 -2 9 0q17 9 66.5 31t53.5 22t10.5 -11t4.5 -15q-24 -18 -72.5 -57.5t-58.5 -51.5z" />
    <glyph glyph-name="uni0165" unicode="&#x165;" horiz-adv-x="320" 
d="M301 339q-30 1 -99 1q-4 0 -4 -6q0 -18 -0.5 -74.5t-0.5 -81.5q0 -55 4 -75q2 -17 15.5 -28t35.5 -11q31 0 54 14q2 -3 1.5 -16t-2.5 -19q-41 -54 -120 -54q-75 0 -103 48q-10 19 -12.5 40t-2.5 71q0 26 0.5 94t0.5 88q0 8 -6 10q-7 1 -24 2t-24 2q0 21 9 41q31 7 40 11
q3 0 5 8v85q23 7 61 25t50 28q15 4 23 2q-4 -31 -4 -136q0 -8 4 -8q1 0 109 4q-9 -52 -10 -65zM337 705q8 0 8 -15q1 -27 -6.5 -92t-16.5 -93q-3 -9 -17 -22t-23 -18q-2 -1 -5 1.5t-3 3.5q0 71 -15 186q0 5 3 8q6 7 36 24t39 17z" />
    <glyph glyph-name="Tbar" unicode="&#x166;" horiz-adv-x="642" 
d="M143 31q56 8 64 10q19 5 26 16.5t9 44.5q4 64 4 190q-50 -1 -93 -1q3 34 8 39q2 0 29.5 -0.5t55.5 -0.5v212q0 2 -2.5 6t-4.5 4q-14 1 -45.5 1t-48.5 -1q-32 -1 -50 -37q-18 -37 -35 -84q-3 -3 -19.5 1t-18.5 8q15 75 21 171q0 2 4 4.5t5 1.5q40 -13 92 -13h354
q75 0 115 12q4 -2 4 -5q-16 -67 -24 -178q-3 -2 -19 -3t-18 2q-8 57 -21 92q-9 25 -36 28q-19 1 -57 1.5t-47 -0.5q-7 -2 -7 -10v-213q25 0 48.5 0.5t37.5 1t17 0.5q3 -21 -5 -40q-4 0 -34.5 0.5t-63.5 0.5q0 -172 2 -202q2 -38 25 -47q14 -5 67 -12q3 -3 2 -16.5t-4 -17.5
q-30 0 -81.5 1.5t-80.5 1.5q-28 0 -87 -1.5t-88 -1.5q-5 4 -5 17.5t5 16.5z" />
    <glyph glyph-name="tbar" unicode="&#x167;" horiz-adv-x="320" 
d="M301 339q-30 1 -99 1q-4 0 -4 -6q0 -10 -0.5 -40.5t-0.5 -47.5q20 0 52.5 1t36.5 1q1 -5 -1 -20t-4 -21l-84 1v-30q0 -55 4 -75q2 -17 15.5 -28t35.5 -11q31 0 54 14q2 -3 1.5 -16t-2.5 -19q-41 -54 -120 -54q-75 0 -103 48q-10 19 -12.5 40t-2.5 71v60q-8 0 -26 -0.5
t-26 -0.5q0 32 8 40q5 0 21 -0.5t23 -0.5q1 30 1 84q0 8 -6 10q-8 1 -24 2t-24 2q0 21 9 41q31 7 40 11q3 0 5 8v85q23 7 61 25t50 28q15 4 23 2q-4 -31 -4 -136q0 -8 4 -8q1 0 109 4q-9 -52 -10 -65z" />
    <glyph glyph-name="uni0168" unicode="&#x168;" horiz-adv-x="708" 
d="M14 572q-2 4 -1.5 17t2.5 17q15 0 68 -1.5t86 -1.5q36 0 88.5 1.5t69.5 1.5q3 -4 3 -17t-3 -17q-11 -1 -28 -4.5t-18 -3.5q-32 -8 -34 -55q-1 -24 -1 -214q0 -79 8 -127q20 -115 158 -115q28 0 51 6t45.5 22t36.5 49t18 81q4 53 4.5 151t-2.5 136q-2 30 -10.5 44.5
t-32.5 19.5q-26 7 -59 10q-2 4 -2 16.5t3 17.5q17 0 58.5 -1.5t65.5 -1.5q45 0 80.5 1.5t40.5 1.5q4 -4 4 -17t-4 -17q-36 -7 -42 -9q-19 -5 -26.5 -19t-9.5 -51q-2 -25 -8 -239q-6 -147 -73.5 -209.5t-191.5 -62.5q-230 0 -251 185q-3 26 -5 71.5t-2 81t-0.5 102t-0.5 90.5
q-2 41 -33 50q-20 7 -52 10zM468 728q38 0 74 35q2 2 4 -4q6 -16 5 -25q-12 -23 -46.5 -47t-66.5 -24q-20 0 -74 17q-27 10 -45 10q-28 0 -66 -33q-1 -1 -4 3q-10 18 -6 24q10 18 45 45t57 27t67 -15q41 -13 56 -13z" />
    </font>
</defs>
</svg>
