<?xml version="1.0" standalone="no"?>
<!DOCTYPE svg PUBLIC "-//W3C//DTD SVG 1.1//EN" "http://www.w3.org/Graphics/SVG/1.1/DTD/svg11.dtd" >
<svg>
<metadata>
Created by FontForge 20090914 at Thu Jun  2 15:27:23 2016
 By www-data
(c) Copyright 1999-2000 Bitstream/Galapagos Design Group. All rights reserved.
</metadata>
<defs>
<font id="Futura-Medium" horiz-adv-x="1184" >
  <font-face 
    font-family="Futura Md"
    font-weight="400"
    font-stretch="normal"
    units-per-em="2048"
    panose-1="2 11 6 2 2 2 4 2 3 3"
    ascent="1556"
    descent="-492"
    x-height="958"
    cap-height="1544"
    bbox="-377 -553.001 2404 2142"
    underline-thickness="143"
    underline-position="-195"
    unicode-range="U+0020-U+FB02"
  />
<missing-glyph horiz-adv-x="1229" 
d="M102 -362v1806h1024v-1806h-1024zM217 -248h795v1577h-795v-1577z" />
    <glyph glyph-name=".notdef" horiz-adv-x="1229" 
d="M102 -362v1806h1024v-1806h-1024zM217 -248h795v1577h-795v-1577z" />
    <glyph glyph-name="space" unicode=" " horiz-adv-x="592" 
 />
    <glyph glyph-name="exclam" unicode="!" horiz-adv-x="657" 
d="M457 94c0 -35.333 -12.333 -65.333 -37 -90s-54.667 -37 -90 -37s-65.333 12.333 -90 37s-37 54.667 -37 90s12.333 65.333 37 90s54.667 37 90 37s65.333 -12.333 90 -37s37 -54.667 37 -90zM422 406h-184v1138h184v-1138z" />
    <glyph glyph-name="quotedbl" unicode="&#x22;" horiz-adv-x="899" 
d="M342 979h-137v565h137v-565zM696 979h-137v565h137v-565z" />
    <glyph glyph-name="numbersign" unicode="#" 
d="M793 940h-295l-92 -338h292zM1174 1061l-29 -121h-211l-94 -338h233l-26 -123h-234l-133 -479h-143l135 479h-291l-137 -479h-142l134 479h-224l29 123h221l94 338h-247l28 121h246l133 483h141l-131 -483h291l133 483h142l-131 -483h213z" />
    <glyph glyph-name="dollar" unicode="$" 
d="M854 422c0 56 -17.3311 106.999 -51.998 152.999s-86.334 85.667 -155.001 119v-526c65.333 10.667 116.166 38.334 152.499 83.001s54.5 101.667 54.5 171zM549.002 935.999v444.001c-54 -6.66699 -99.667 -30.334 -137 -71.001s-56 -85.667 -56 -135
c0 -48 16 -91.667 48 -131s80.333 -75 145 -107zM1038 432c0 -117.333 -35.834 -215.997 -107.501 -295.997s-166.167 -125.333 -283.5 -136v-211h-98v211c-96.667 2.66699 -181.667 26.167 -255 70.5s-131 106.833 -173 187.5l133 109c26 -60 65.167 -107.667 117.5 -143
s111.166 -54 176.499 -56l1 569c-131.333 60 -227 124.167 -287 192.5s-90 148.166 -90 239.499c0 98 35.167 182.667 105.5 254s160.833 111.666 271.5 120.999v146h98v-145c66.667 -2.66699 126.5 -18.667 179.5 -48s101.167 -73 144.5 -131l-127 -109
c-23.333 37.333 -51.166 66.166 -83.499 86.499s-70.166 32.5 -113.499 36.5v-485c135.333 -60.667 234.333 -128 297 -202s94 -161 94 -261z" />
    <glyph glyph-name="percent" unicode="%" horiz-adv-x="1450" 
d="M1264 322c0 58.667 -19 108.835 -57 150.502s-84 62.5 -138 62.5s-100.333 -21 -139 -63s-58 -92 -58 -150c0 -58.667 19.333 -108.834 58 -150.501s85 -62.5 139 -62.5s100 20.667 138 62s57 91.666 57 150.999zM590 1223c0 58.667 -19 108.833 -57 150.5
s-84 62.5 -138 62.5s-100.167 -21 -138.5 -63s-57.5 -92 -57.5 -150c0 -58.667 19.167 -108.834 57.5 -150.501s84.5 -62.5 138.5 -62.5s100 20.833 138 62.5s57 91.834 57 150.501zM1401 322c0 -94.667 -32.5 -175.333 -97.5 -242s-143.167 -100 -234.5 -100
s-169.833 33.5 -235.5 100.5s-98.5 147.5 -98.5 241.5c0 93.333 32.833 173.333 98.5 240s144.167 100 235.5 100s169.5 -33.333 234.5 -100s97.5 -146.667 97.5 -240zM1245 1544l-909 -1544h-117l909 1544h117zM727 1223c0 -94 -32.333 -174.166 -97 -240.499
s-143 -99.5 -235 -99.5c-91.333 0 -169.833 33.167 -235.5 99.5s-98.5 146.5 -98.5 240.5c0 93.333 32.833 173.666 98.5 240.999s144.167 101 235.5 101s169.5 -33.5 234.5 -100.5s97.5 -147.5 97.5 -241.5z" />
    <glyph glyph-name="ampersand" unicode="&#x26;" horiz-adv-x="1417" 
d="M895 317l-348.001 439c-105.333 -70.667 -177.166 -130.334 -215.499 -179.001s-57.5 -105.667 -57.5 -171c0 -77.333 26.167 -141.166 78.5 -191.499s118.5 -75.5 198.5 -75.5c56 0 112.833 15 170.5 45s115.5 74.333 173.5 133zM792.999 1245
c0 50.667 -16.167 91.333 -48.5 122s-74.5 46 -126.5 46c-56 0 -99.667 -14.5 -131 -43.5s-47 -69.167 -47 -120.5c0 -29.333 8.33301 -60.833 25 -94.5s44 -73.834 82 -120.501l49 -61c72.667 48.667 123.667 93.334 153 134.001s44 86.667 44 138zM1370 -0.000976562
l-220.999 0.00292969l-152 188c-75.333 -73.333 -150.833 -128.5 -226.5 -165.5s-150.834 -55.5 -225.501 -55.5c-138.667 0 -250.5 40.5 -335.5 121.5s-127.5 185.833 -127.5 314.5c0 89.333 27.5 170.666 82.5 243.999s148.833 151.333 281.5 234l-49 63
c-50.667 65.333 -85.5 120.166 -104.5 164.499s-28.5 91.166 -28.5 140.499c0 95.333 32.833 173.833 98.5 235.5s151.834 92.5 258.501 92.5c101.333 0 184.666 -30.833 249.999 -92.5s98 -138.834 98 -231.501c0 -76.667 -21.167 -146.5 -63.5 -209.5
s-112.833 -127.5 -211.5 -193.5l322 -404c30 38.667 59.333 78.834 88 120.501s56 84.167 82 127.5l137 -98c-31.333 -51.333 -64 -100.5 -98 -147.5s-69 -91.5 -105 -133.5z" />
    <glyph glyph-name="quotesingle" unicode="'" horiz-adv-x="567" 
d="M352 979h-137v565h137v-565z" />
    <glyph glyph-name="parenleft" unicode="(" horiz-adv-x="598" 
d="M516 -395l-143 -66c-82.667 144.667 -145 303 -187 475s-63 354.333 -63 547s21 374.667 63 546s104.333 329.333 187 474l143 -65c-72 -131.333 -126.5 -277.666 -163.5 -438.999s-55.5 -333.333 -55.5 -516s18.5 -354.834 55.5 -516.501s91.5 -308.167 163.5 -439.5z
" />
    <glyph glyph-name="parenright" unicode=")" horiz-adv-x="598" 
d="M475 561c0 -192.667 -21 -375.003 -63 -547.003s-104.333 -330.333 -187 -475l-143 66c72.667 132.667 127.667 279.834 165 441.501s56 333.167 56 514.5c0 180.667 -18.667 351.834 -56 513.501s-92.333 308.834 -165 441.501l143 65
c82.667 -144.667 145 -302.667 187 -474s63 -353.333 63 -546z" />
    <glyph glyph-name="asterisk" unicode="*" horiz-adv-x="885" 
d="M811 1008l-61 -103l-258 166l12 -307h-123l12 307l-258 -166l-61 103l272 147l-272 145l61 105l258 -168l-12 307h123l-12 -307l258 168l61 -105l-270 -145z" />
    <glyph glyph-name="plus" unicode="+" 
d="M1128 487h-462v-487h-146v487h-463v142h463v485h146v-485h462v-142z" />
    <glyph glyph-name="comma" unicode="," horiz-adv-x="592" 
d="M436 174l-266 -528l-113 43l193 563z" />
    <glyph glyph-name="hyphen" unicode="-" horiz-adv-x="680" 
d="M586 453h-492v172h492v-172z" />
    <glyph glyph-name="period" unicode="." horiz-adv-x="592" 
d="M424 94c0 -35.333 -12.333 -65.333 -37 -90s-54.667 -37 -90 -37s-65.333 12.333 -90 37s-37 54.667 -37 90s12.333 65.333 37 90s54.667 37 90 37s65.333 -12.333 90 -37s37 -54.667 37 -90z" />
    <glyph glyph-name="slash" unicode="/" horiz-adv-x="1128" 
d="M1098 1647l-1004 -1954l-121 65l1004 1954z" />
    <glyph glyph-name="zero" unicode="0" 
d="M950 774c0 191.333 -33.168 345.668 -99.501 463.001s-153.166 176 -260.499 176c-104 0 -189 -60.167 -255 -180.5s-99 -274.5 -99 -462.5c0 -186.667 33.167 -339.834 99.5 -459.501s151.833 -179.5 256.5 -179.5c108.667 0 195.5 58.5 260.5 175.5
s97.5 272.833 97.5 467.5zM1133 772.002c0 -244 -49.668 -439.167 -149.001 -585.5s-230.666 -219.5 -393.999 -219.5c-161.333 0 -291.5 73.5 -390.5 220.5s-148.5 341.833 -148.5 584.5c0 243.333 49.667 438.333 149 585s230 220 392 220c163.333 0 294.333 -73 393 -219
s148 -341.333 148 -586z" />
    <glyph glyph-name="one" unicode="1" 
d="M745 0h-184v1368h-293l84 176h393v-1544z" />
    <glyph glyph-name="two" unicode="2" 
d="M1077 0h-975.001l529 637c96.667 116.667 163.5 210.334 200.5 281.001s55.5 140 55.5 208c0 82.667 -27.833 151.167 -83.5 205.5s-127.5 81.5 -215.5 81.5c-84.667 0 -154.334 -30.833 -209.001 -92.5s-82.667 -139.167 -84 -232.5h-178
c0.666992 152 42.834 271.5 126.501 358.5s199.834 130.5 348.501 130.5c146 0 262.333 -41 349 -123s130 -189 130 -321c0 -96.667 -23.333 -190.334 -70 -281.001s-144 -221 -292 -391l-258 -297h626v-164z" />
    <glyph glyph-name="three" unicode="3" 
d="M1053 432c0 -142 -43.499 -255.003 -130.499 -339.003s-206.167 -126 -357.5 -126c-141.333 0 -252 37.5 -332 112.5s-122.333 180.167 -127 315.5h185c2 -83.333 27.667 -148.166 77 -194.499s115.666 -69.5 198.999 -69.5c96 0 170.167 26.667 222.5 80
s78.5 128.333 78.5 225c0 94 -27.167 167.333 -81.5 220s-131.5 79 -231.5 79h-49v164h47c90.667 0 160.167 22.833 208.5 68.5s72.5 112.167 72.5 199.5c0 72.667 -23 131.834 -69 177.501s-106.333 68.5 -181 68.5c-72 0 -131.167 -18.5 -177.5 -55.5
s-74.5 -88.833 -84.5 -155.5h-175c12.667 118.667 57.667 210.834 135 276.501s180 98.5 308 98.5c132 0 236.333 -37 313 -111s115 -173 115 -297c0 -89.333 -23 -166 -69 -230s-107.667 -104 -185 -120c86.667 -15.333 156.5 -58.333 209.5 -129s79.5 -156.667 79.5 -258z
" />
    <glyph glyph-name="four" unicode="4" 
d="M739 504v604l-454 -604h454zM1135 340h-211v-340h-185v340h-747l932 1249v-1085h211v-164z" />
    <glyph glyph-name="five" unicode="5" 
d="M1061 504c0 -162.667 -50.8311 -292.833 -152.498 -390.5s-238.5 -146.5 -410.5 -146.5c-93.333 0 -175.333 16.167 -246 48.5s-134.334 83.166 -191.001 152.499l105 121c53.333 -60.667 104 -102.167 152 -124.5s106 -33.5 174 -33.5
c113.333 0 205.833 34.667 277.5 104s107.5 159 107.5 269c0 106.667 -34.833 194.334 -104.5 263.001s-159.167 103 -268.5 103c-66.667 0 -131.834 -11 -195.501 -33s-118.167 -52.667 -163.5 -92l179 799h673v-164h-540l-88 -381c26.667 12.667 55 21.667 85 27
s63.667 8 101 8c152 0 274.333 -49.333 367 -148s139 -226 139 -382z" />
    <glyph glyph-name="six" unicode="6" 
d="M930 485c0 96 -32.667 177.001 -98 243.001s-145.333 99 -240 99c-96 0 -176.333 -32.333 -241 -97s-97 -146.334 -97 -245.001c0 -98 32.667 -181.5 98 -250.5s145.333 -103.5 240 -103.5c94 0 173.833 34.5 239.5 103.5s98.5 152.5 98.5 250.5zM1114 485.001
c0 -144 -50.1689 -266.333 -150.502 -367s-224.166 -151 -371.499 -151s-271.166 50 -371.499 150s-150.5 222.667 -150.5 368c0 83.333 18.833 168.833 56.5 256.5s104.167 199.5 199.5 335.5l323 467h203l-408 -590c15.333 10.667 38.333 19.5 69 26.5
s59.667 10.5 87 10.5c148.667 0 271.5 -47.667 368.5 -143s145.5 -216.333 145.5 -363z" />
    <glyph glyph-name="seven" unicode="7" 
d="M1157 1544l-819 -1589l-170 84l717 1341h-803v164h1075z" />
    <glyph glyph-name="eight" unicode="8" 
d="M897 434c0 83.333 -29.1689 153.335 -87.502 210.002s-130.166 85 -215.499 85s-157.833 -28.5 -217.5 -85.5s-89.5 -126.833 -89.5 -209.5c0 -86.667 29.333 -158.834 88 -216.501s131.667 -86.5 219 -86.5c92.667 0 166.334 28.167 221.001 84.5s82 129.166 82 218.499
zM849.998 1149c0 74 -24.833 136.501 -74.5 187.501s-110.167 76.5 -181.5 76.5c-72 0 -133.333 -25.5 -184 -76.5s-76 -112.833 -76 -185.5s24.833 -133.834 74.5 -183.501s110.834 -74.5 183.501 -74.5c73.333 0 134.666 24.5 183.999 73.5s74 109.833 74 182.5z
M1081 426.003c0 -132 -45.666 -241.5 -136.999 -328.5s-208 -130.5 -350 -130.5s-259.5 43.333 -352.5 130s-139.5 195 -139.5 325c0 92.667 24.667 174.5 74 245.5s116.333 121.5 201 151.5c-73.333 32.667 -129.5 78.5 -168.5 137.5s-58.5 127.833 -58.5 206.5
c0 117.333 42.167 215.666 126.5 294.999s190.166 119 317.499 119s232.5 -39.667 315.5 -119s124.5 -179 124.5 -299c0 -76 -20 -144 -60 -204s-95.667 -105.333 -167 -136c84.667 -30 151.5 -80.167 200.5 -150.5s73.5 -151.166 73.5 -242.499z" />
    <glyph glyph-name="nine" unicode="9" 
d="M922 1059c0 98 -32.833 181.499 -98.5 250.499s-145.5 103.5 -239.5 103.5c-94.667 0 -174.667 -34.5 -240 -103.5s-98 -152.5 -98 -250.5c0 -96 32.5 -177 97.5 -243s145.167 -99 240.5 -99c96 0 176.333 32.333 241 97s97 146.334 97 245.001zM1106 1059
c0 -81.333 -18.499 -165 -55.499 -251s-103.833 -199.667 -200.5 -341l-352 -512l-140 96l373 539c-14.667 -10.667 -37.5 -19.5 -68.5 -26.5s-60.167 -10.5 -87.5 -10.5c-148.667 0 -271.5 47.833 -368.5 143.5s-145.5 216.5 -145.5 362.5c0 144 50.333 266.333 151 367
s224.667 151 372 151s271.166 -49.833 371.499 -149.5s150.5 -222.5 150.5 -368.5z" />
    <glyph glyph-name="colon" unicode=":" horiz-adv-x="592" 
d="M424 94c0 -35.333 -12.333 -65.333 -37 -90s-54.667 -37 -90 -37s-65.333 12.333 -90 37s-37 54.667 -37 90s12.333 65.333 37 90s54.667 37 90 37s65.333 -12.333 90 -37s37 -54.667 37 -90zM424 864c0 -34.667 -12.333 -64.167 -37 -88.5s-54.667 -36.5 -90 -36.5
c-36 0 -66.167 12.167 -90.5 36.5s-36.5 53.833 -36.5 88.5c0 35.333 12.333 65.333 37 90s54.667 37 90 37s65.333 -12.333 90 -37s37 -54.667 37 -90z" />
    <glyph glyph-name="semicolon" unicode=";" horiz-adv-x="592" 
d="M436 174l-266 -528l-113 43l193 563zM449 864c0 -34.667 -12.333 -64.167 -37 -88.5s-54.667 -36.5 -90 -36.5c-36 0 -66.167 12.167 -90.5 36.5s-36.5 53.833 -36.5 88.5c0 35.333 12.333 65.333 37 90s54.667 37 90 37c34.667 0 64.5 -12.333 89.5 -37
s37.5 -54.667 37.5 -90z" />
    <glyph glyph-name="less" unicode="&#x3c;" 
d="M1116 25l-1046 469v127l1046 469v-156l-846 -377l846 -379v-153z" />
    <glyph glyph-name="equal" unicode="=" 
d="M1116 289h-1046v141h1046v-141zM1116 688h-1046v141h1046v-141z" />
    <glyph glyph-name="greater" unicode="&#x3e;" 
d="M1116 494l-1048 -469v153l845 379l-845 377v156l1048 -469v-127z" />
    <glyph glyph-name="question" unicode="?" horiz-adv-x="928" 
d="M580 94c0 -35.333 -12.333 -65.333 -37 -90s-54.667 -37 -90 -37c-36 0 -66.167 12.333 -90.5 37s-36.5 54.667 -36.5 90s12.333 65.333 37 90s54.667 37 90 37c34.667 0 64.5 -12.333 89.5 -37s37.5 -54.667 37.5 -90zM817 1241
c0 -78.667 -20.834 -144.834 -62.501 -198.501s-116.5 -106.834 -224.5 -159.501c-90 -45.333 -149 -82.5 -177 -111.5s-42 -61.5 -42 -97.5c0 -34.667 13.833 -66.167 41.5 -94.5s59.834 -42.5 96.501 -42.5c44 0 79.5 15.167 106.5 45.5s41.167 70.833 42.5 121.5l176 1
c0 -101.333 -29 -182 -87 -242s-137.333 -90 -238 -90c-94.667 0 -172 28 -232 84s-90 127 -90 213c0 78 21.167 143.167 63.5 195.5s124.833 107.833 247.5 166.5c68 32 117.5 65.5 148.5 100.5s46.5 73.833 46.5 116.5c0 45.333 -16.667 84 -50 116s-74 48 -122 48
c-54 0 -96.833 -19.167 -128.5 -57.5s-47.5 -89.5 -47.5 -153.5h-176c0 118.667 30.833 210.834 92.5 276.501s148.167 98.5 259.5 98.5c109.333 0 196 -30.167 260 -90.5s96 -142.166 96 -245.499z" />
    <glyph glyph-name="at" unicode="@" horiz-adv-x="1638" 
d="M1026 893c-10 56.667 -30.168 99.501 -60.501 128.501s-70.166 43.5 -119.499 43.5c-80 0 -146.833 -38.5 -200.5 -115.5s-80.5 -174.5 -80.5 -292.5c0 -62.667 13.667 -109.334 41 -140.001s69 -46 125 -46c58.667 0 112.167 23.5 160.5 70.5s80.833 108.167 97.5 183.5
zM1597 915.001c0 -178.667 -37.9971 -318.833 -113.997 -420.5s-184 -152.5 -324 -152.5c-60 0 -106.667 13.667 -140 41s-50 65.666 -50 114.999c-29.333 -50 -67 -88.167 -113 -114.5s-97.333 -39.5 -154 -39.5c-93.333 0 -164.666 27.333 -213.999 82
s-74 133.334 -74 236.001c0 148 41.5 273.333 124.5 376s183.5 154 301.5 154c50.667 0 95 -11.833 133 -35.5s66.667 -57.5 86 -101.5l49 102h125l-127 -543c-3.33301 -14 -5.83301 -27 -7.5 -39s-2.5 -22.667 -2.5 -32c0 -28.667 5.16699 -48.167 15.5 -58.5
s30.166 -15.5 59.499 -15.5c89.333 0 160.5 39.167 213.5 117.5s79.5 186.5 79.5 324.5c0 157.333 -54.333 287.166 -163 389.499s-251.667 153.5 -429 153.5c-219.333 0 -390.5 -65.5 -513.5 -196.5s-184.5 -310.5 -184.5 -538.5c0 -205.333 54.833 -361.5 164.5 -468.5
s269.167 -160.5 478.5 -160.5c104.667 0 213.167 16.667 325.5 50s205.166 77.333 278.499 132l66 -100c-79.333 -64 -179.333 -114.167 -300 -150.5s-243.334 -54.5 -368.001 -54.5c-246.667 0 -438 64.833 -574 194.5s-204 314.834 -204 555.501
c0 262 74.5 470.833 223.5 626.5s353.167 233.5 612.5 233.5c211.333 0 384.166 -62.5 518.499 -187.5s201.5 -283.167 201.5 -474.5z" />
    <glyph glyph-name="A" unicode="A" horiz-adv-x="1440" 
d="M969 610l-248 561l-248 -561h496zM1450 0h-213l-197 446h-641l-196 -446h-213l731 1589z" />
    <glyph glyph-name="B" unicode="B" horiz-adv-x="1096" 
d="M821 442c0 92 -31.167 162.167 -93.5 210.5s-153.166 72.5 -272.499 72.5h-119v-549h137c123.333 0 212.166 21.5 266.499 64.5s81.5 110.167 81.5 201.5zM711 1128c0 83.333 -21.5 144.167 -64.5 182.5s-109.833 57.5 -200.5 57.5h-110v-479h88
c94.667 0 166.167 20.167 214.5 60.5s72.5 99.833 72.5 178.5zM1014 440.001c0 -147.333 -45.501 -257.501 -136.501 -330.501s-228.5 -109.5 -412.5 -109.5h-322v1544h310c138 0 247.5 -36.167 328.5 -108.5s121.5 -169.166 121.5 -290.499
c0 -80.667 -20.5 -151.5 -61.5 -212.5s-93.5 -98.833 -157.5 -113.5c102.667 -12 183.334 -52.167 242.001 -120.5s88 -154.5 88 -258.5z" />
    <glyph glyph-name="C" unicode="C" horiz-adv-x="1354" 
d="M1296 96c-58.667 -38 -129.001 -69 -211.001 -93s-159 -36 -231 -36c-232 0 -419.333 74.5 -562 223.5s-214 343.5 -214 583.5c0 232 72.667 423.833 218 575.5s332 227.5 560 227.5c89.333 0 169.833 -10.5 241.5 -31.5s137.834 -53.5 198.501 -97.5v-215
c-66.667 54.667 -134.5 95.667 -203.5 123s-140.167 41 -213.5 41c-179.333 0 -325.666 -58.333 -438.999 -175s-170 -266 -170 -448c0 -184 54.167 -334.5 162.5 -451.5s248.166 -175.5 419.499 -175.5c82.667 0 161 14 235 42s143.667 70 209 126v-219z" />
    <glyph glyph-name="D" unicode="D" horiz-adv-x="1362" 
d="M1108 772c0 192 -54.332 338.667 -162.999 440s-266.667 152 -474 152h-135v-1184h121c221.333 0 385.166 48.833 491.499 146.5s159.5 246.167 159.5 445.5zM1300 770c0 -252.667 -72.667 -444.167 -218 -574.5s-358 -195.5 -638 -195.5h-301v1544h306
c274 0 484.333 -67 631 -201s220 -325 220 -573z" />
    <glyph glyph-name="E" unicode="E" horiz-adv-x="1067" 
d="M954 0h-811v1544h811v-180h-618v-451h618v-180h-618v-553h618v-180z" />
    <glyph glyph-name="F" unicode="F" horiz-adv-x="971" 
d="M864 733h-518v-733h-192v1544h710v-180h-518v-451h518v-180z" />
    <glyph glyph-name="G" unicode="G" horiz-adv-x="1597" 
d="M1546 764c0 -240.667 -65.8311 -433.667 -197.498 -579s-307.5 -218 -527.5 -218c-221.333 0 -403.333 75.5 -546 226.5s-214 343.833 -214 578.5c0 232 71.167 424.167 213.5 576.5s322.5 228.5 540.5 228.5c136.667 0 256.167 -26 358.5 -78s189.833 -131 262.5 -237
l-146 -113c-54 82 -120.333 143.833 -199 185.5s-168.667 62.5 -270 62.5c-166.667 0 -302.834 -59.5 -408.501 -178.5s-158.5 -270.5 -158.5 -454.5c0 -176 53.667 -322.833 161 -440.5s242.666 -176.5 405.999 -176.5c140.667 0 258 43.167 352 129.5s148 197.5 162 333.5
h-465v181h676v-27z" />
    <glyph glyph-name="H" unicode="H" horiz-adv-x="1382" 
d="M1239 0h-192v733h-711v-733h-193v1544h193v-631h711v631h192v-1544z" />
    <glyph glyph-name="I" unicode="I" horiz-adv-x="475" 
d="M334 0h-193v1544h193v-1544z" />
    <glyph glyph-name="J" unicode="J" horiz-adv-x="741" 
d="M588 410c0 -154 -29.998 -266.332 -89.998 -336.999s-155.667 -106 -287 -106c-38.667 0 -79.334 4.83301 -122.001 14.5s-85.334 23.5 -128.001 41.5l57 172c43.333 -18.667 78.5 -31.334 105.5 -38.001s52.833 -10 77.5 -10c72 0 122.333 21.5 151 64.5
s43 113.833 43 212.5v1120h193v-1134z" />
    <glyph glyph-name="K" unicode="K" horiz-adv-x="1229" 
d="M1237 0h-240l-651 801v-801h-192v1544h192v-719l637 719h227l-655 -723z" />
    <glyph glyph-name="L" unicode="L" horiz-adv-x="788" 
d="M766 0h-612v1544h192v-1368h420v-176z" />
    <glyph glyph-name="M" unicode="M" horiz-adv-x="1743" 
d="M1702 0h-193l-147 1001l-492 -1046l-487 1046l-147 -1001h-195l260 1589l573 -1227l574 1227z" />
    <glyph glyph-name="N" unicode="N" horiz-adv-x="1608" 
d="M1464 -45l-1128 1171v-1126h-193v1589l1129 -1169v1124h192v-1589z" />
    <glyph glyph-name="O" unicode="O" horiz-adv-x="1696" 
d="M1442 772c0 174.667 -57.333 322.5 -172 443.5s-255.334 181.5 -422.001 181.5c-180 0 -323.333 -61.167 -430 -183.5s-160 -269.5 -160 -441.5c0 -174.667 56.667 -322.5 170 -443.5s253.333 -181.5 420 -181.5s307.334 60.667 422.001 182s172 269 172 443zM1634 772
c0 -225.333 -76.167 -415.833 -228.5 -571.5s-338.166 -233.5 -557.499 -233.5c-218 0 -403.667 78.167 -557 234.5s-230 346.5 -230 570.5c0 227.333 75.833 418.333 227.5 573s338.167 232 559.5 232s407.666 -77.333 558.999 -232s227 -345.667 227 -573z" />
    <glyph glyph-name="P" unicode="P" horiz-adv-x="1014" 
d="M760 1106c0 90 -27.333 155.5 -82 196.5s-144 61.5 -268 61.5h-74v-514h74c128.667 0 219.167 19.667 271.5 59s78.5 105 78.5 197zM952 1106c0 -141.333 -47 -249.333 -141 -324s-229 -112 -405 -112h-70v-670h-193v1544h263c182 0 318.5 -36.5 409.5 -109.5
s136.5 -182.5 136.5 -328.5z" />
    <glyph glyph-name="Q" unicode="Q" horiz-adv-x="1696" 
d="M1442 772c0 174.667 -57.332 322.5 -171.999 443.5s-255.334 181.5 -422.001 181.5c-180 0 -323.333 -61.167 -430 -183.5s-160 -269.5 -160 -441.5c0 -174.667 56.667 -322.5 170 -443.5s253.333 -181.5 420 -181.5c48 0 95.167 5.83301 141.5 17.5
s89.833 28.5 130.5 50.5l-280 377h213l204 -277c59.333 59.333 105 128.5 137 207.5s48 162.167 48 249.5zM1634 772c0 -118.667 -22.999 -230.499 -68.999 -335.499s-111.667 -195.167 -197 -270.5l250 -336h-213l-176 236c-58 -32.667 -119 -57.334 -183 -74.001
s-130 -25 -198 -25c-218 0 -403.667 78.167 -557 234.5s-230 346.5 -230 570.5c0 227.333 75.833 418.333 227.5 573s338.167 232 559.5 232s407.666 -77.333 558.999 -232s227 -345.667 227 -573z" />
    <glyph glyph-name="R" unicode="R" horiz-adv-x="1112" 
d="M809 1116c0 86 -27.333 148.833 -82 188.5s-140.667 59.5 -258 59.5h-133v-481h133c118.667 0 205 18.333 259 55s81 96 81 178zM1079 0h-233l-455 721h-55v-721h-193v1544h349c165.333 0 291.5 -36 378.5 -108s130.5 -175.333 130.5 -310c0 -120 -36 -215.333 -108 -286
s-170.333 -107.667 -295 -111z" />
    <glyph glyph-name="S" unicode="S" horiz-adv-x="1100" 
d="M993 412c0 -138.667 -42.6689 -247.5 -128.002 -326.5s-203 -118.5 -353 -118.5c-104 0 -194.5 22.667 -271.5 68s-133.167 109.333 -168.5 192l133 121c23.333 -62.667 63 -111.834 119 -147.501s120.667 -53.5 194 -53.5c90 0 159.667 22.333 209 67s74 107.667 74 189
c0 67.333 -24.333 126.5 -73 177.5s-130.334 105.167 -245.001 162.5c-133.333 67.333 -226.666 133.666 -279.999 198.999s-80 147.333 -80 246c0 116.667 39.333 210.667 118 282s183.334 107 314.001 107c80.667 0 151.167 -15.333 211.5 -46s110.833 -76.667 151.5 -138
l-127 -125c-23.333 40.667 -56.333 72.334 -99 95.001s-90.334 34 -143.001 34c-72 0 -129 -18 -171 -54s-63 -84.333 -63 -145c0 -56.667 16.833 -105.167 50.5 -145.5s100.834 -87.5 201.501 -141.5c176.667 -95.333 291.834 -178.166 345.501 -248.499
s80.5 -153.833 80.5 -250.5z" />
    <glyph glyph-name="T" unicode="T" horiz-adv-x="934" 
d="M913 1372h-350v-1372h-192v1372h-351v172h893v-172z" />
    <glyph glyph-name="U" unicode="U" horiz-adv-x="1370" 
d="M1227 580c0 -206 -44.666 -359.667 -133.999 -461s-225 -152 -407 -152c-180.667 0 -316.334 51.333 -407.001 154s-136 255.667 -136 459v964h193v-1003c0 -132 29 -230.667 87 -296s145.667 -98 263 -98c118 0 205.5 32.333 262.5 97s85.5 163.667 85.5 297v1003h193
v-964z" />
    <glyph glyph-name="V" unicode="V" horiz-adv-x="1311" 
d="M1321 1544l-668 -1589l-663 1589h207l456 -1130l461 1130h207z" />
    <glyph glyph-name="W" unicode="W" horiz-adv-x="2103" 
d="M2114 1544l-627 -1589l-434 1135l-441 -1135l-622 1589h203l423 -1118l435 1163l432 -1163l428 1118h203z" />
    <glyph glyph-name="X" unicode="X" horiz-adv-x="1176" 
d="M1169 0h-221l-362 641l-359 -641h-221l473 815l-446 729h221l338 -577l334 577h219l-447 -737z" />
    <glyph glyph-name="Y" unicode="Y" horiz-adv-x="1174" 
d="M1167 1544l-481 -839v-705h-192v705l-488 839h217l371 -665l358 665h215z" />
    <glyph glyph-name="Z" unicode="Z" horiz-adv-x="1130" 
d="M1102 1544l-797 -1364h754v-180h-1069l801 1364h-711v180h1022z" />
    <glyph glyph-name="bracketleft" unicode="[" horiz-adv-x="637" 
d="M539 -432h-371v1976h371v-155h-203v-1665h203v-156z" />
    <glyph glyph-name="backslash" unicode="\" horiz-adv-x="1128" 
d="M1157 -242l-123 -65l-1003 1954l121 65z" />
    <glyph glyph-name="bracketright" unicode="]" horiz-adv-x="637" 
d="M434 -432h-371v156h203v1665h-203v155h371v-1976z" />
    <glyph glyph-name="asciicircum" unicode="^" 
d="M1044 866h-153l-299 500l-299 -500h-152l379 678h144z" />
    <glyph glyph-name="underscore" unicode="_" horiz-adv-x="1024" 
d="M1024 -371h-1024v146h1024v-146z" />
    <glyph glyph-name="grave" unicode="`" horiz-adv-x="737" 
d="M494 1149l-66 -74l-307 260l90 109z" />
    <glyph glyph-name="a" unicode="a" horiz-adv-x="1139" 
d="M821 489c0 102 -26.002 181.833 -78.002 239.5s-123 86.5 -213 86.5c-89.333 0 -160.666 -29.833 -213.999 -89.5s-80 -140.5 -80 -242.5c0 -102.667 26.333 -185 79 -247s122.334 -93 209.001 -93c88 0 159.5 32 214.5 96s82.5 147.333 82.5 250zM1006 0
l-184.998 0.000976562v150c-31.333 -60.667 -74 -106.334 -128 -137.001s-119 -46 -195 -46c-132.667 0 -240.334 48 -323.001 144s-124 220.667 -124 374c0 150.667 41.5 272.667 124.5 366s191.833 140 326.5 140c71.333 0 133.666 -14.167 186.999 -42.5
s97.333 -70.833 132 -127.5v137h185v-958z" />
    <glyph glyph-name="b" unicode="b" horiz-adv-x="1139" 
d="M903 483c0 102 -26.666 182.833 -79.999 242.5s-125 89.5 -215 89.5s-161 -28.833 -213 -86.5s-78 -137.5 -78 -239.5c0 -102.667 27.667 -186 83 -250s126.666 -96 213.999 -96c86.667 0 156.5 31 209.5 93s79.5 144.333 79.5 247zM1087 485
c0 -153.333 -41.1689 -278.001 -123.502 -374.001s-189.833 -144 -322.5 -144c-76 0 -141.167 15.333 -195.5 46s-97.166 76.334 -128.499 137.001v-150h-184v1690h184v-869c35.333 56.667 79.5 99.167 132.5 127.5s115.5 42.5 187.5 42.5
c134.667 0 243.334 -46.667 326.001 -140s124 -215.333 124 -366z" />
    <glyph glyph-name="c" unicode="c" horiz-adv-x="903" 
d="M852 35c-42.667 -23.333 -86.8311 -40.498 -132.498 -51.498s-96.5 -16.5 -152.5 -16.5c-153.333 0 -277.666 47.167 -372.999 141.5s-143 217.166 -143 368.499c0 153.333 48.667 277.333 146 372s225.666 142 384.999 142c49.333 0 94.5 -5.16699 135.5 -15.5
s82.5 -26.833 124.5 -49.5v-197c-37.333 27.333 -77.833 48.5 -121.5 63.5s-87.167 22.5 -130.5 22.5c-108.667 0 -194.834 -30.833 -258.501 -92.5s-95.5 -144.834 -95.5 -249.501c0 -100 32.167 -180 96.5 -240s150.166 -90 257.499 -90c49.333 0 96.5 7.66699 141.5 23
s85.167 37 120.5 65v-196z" />
    <glyph glyph-name="d" unicode="d" horiz-adv-x="1139" 
d="M821 489c0 102 -26.002 181.833 -78.002 239.5s-123 86.5 -213 86.5c-89.333 0 -160.666 -29.833 -213.999 -89.5s-80 -140.5 -80 -242.5c0 -102.667 26.333 -185 79 -247s122.334 -93 209.001 -93c88 0 159.5 32 214.5 96s82.5 147.333 82.5 250zM1006 0
l-184.998 0.000976562v150c-31.333 -60.667 -74 -106.334 -128 -137.001s-119 -46 -195 -46c-132.667 0 -240.334 48 -323.001 144s-124 220.667 -124 374c0 150.667 41.5 272.667 124.5 366s191.833 140 326.5 140c71.333 0 133.666 -14.167 186.999 -42.5
s97.333 -70.833 132 -127.5v869h185v-1690z" />
    <glyph glyph-name="e" unicode="e" horiz-adv-x="999" 
d="M776 571c-8 79.333 -35 139.833 -81 181.5s-108.333 62.5 -187 62.5c-75.333 0 -137.5 -21.5 -186.5 -64.5s-78.5 -102.833 -88.5 -179.5h543zM958 444l-729.001 0.000976562c7.33301 -98 35.166 -172.667 83.499 -224s115.5 -77 201.5 -77
c65.333 0 119.333 12.667 162 38s77.334 64.666 104.001 117.999l154 -82c-44 -84 -100.667 -146.667 -170 -188s-153.333 -62 -252 -62c-143.333 0 -257 47 -341 141s-126 219.667 -126 377c0 146 44.167 266.833 132.5 362.5s198.5 143.5 330.5 143.5
c134.667 0 243.334 -43.833 326.001 -131.5s124 -203.5 124 -347.5v-68z" />
    <glyph glyph-name="f" unicode="f" horiz-adv-x="563" 
d="M532 795h-185.999v-795h-184v795h-131v163h131v367c0 140 21.167 240.167 63.5 300.5s112.5 90.5 210.5 90.5c18 0 34.667 -1.16699 50 -3.5s30.666 -5.83301 45.999 -10.5v-166c-12 6 -23.833 10.167 -35.5 12.5s-24.167 3.5 -37.5 3.5
c-46.667 0 -77.167 -16.333 -91.5 -49s-21.5 -94 -21.5 -184v-361h186v-163z" />
    <glyph glyph-name="g" unicode="g" horiz-adv-x="1137" 
d="M819 489c0 102 -25.6689 181.833 -77.002 239.5s-122 86.5 -212 86.5c-89.333 0 -160.666 -29.833 -213.999 -89.5s-80 -140.5 -80 -242.5c0 -102.667 26.333 -185 79 -247s122.334 -93 209.001 -93c87.333 0 158.333 31.833 213 95.5s82 147.167 82 250.5zM1004 -51
c0 -175.333 -37 -302.834 -111 -382.501s-191.333 -119.5 -352 -119.5c-132 0 -237.333 29 -316 87s-124.334 139 -137.001 243h188c9.33301 -50.667 36.5 -89 81.5 -115s106.833 -39 185.5 -39c102.667 0 174.334 23.667 215.001 71s61 127.333 61 240v216
c-31.333 -61.333 -73.833 -107.166 -127.5 -137.499s-118.167 -45.5 -193.5 -45.5c-132.667 0 -240.334 48 -323.001 144s-124 220.667 -124 374c0 150.667 41.5 272.667 124.5 366s191.833 140 326.5 140c71.333 0 133.333 -14 186 -42s96.334 -70.667 131.001 -128v137
h185v-1009z" />
    <glyph glyph-name="h" unicode="h" horiz-adv-x="1071" 
d="M944 0l-184.001 0.00195312v567c0 89.333 -16 155 -48 197s-82.333 63 -151 63c-78 0 -138.167 -31.333 -180.5 -94s-63.5 -153.334 -63.5 -272.001v-461h-184v1690h184v-867c28.667 55.333 68.834 97.166 120.501 125.499s114.167 42.5 187.5 42.5
c99.333 0 177.333 -33 234 -99s85 -158.667 85 -278v-614z" />
    <glyph glyph-name="i" unicode="i" horiz-adv-x="520" 
d="M352 0h-184v958h184v-958zM381 1346c0 -34 -11.667 -62.667 -35 -86s-52 -35 -86 -35s-62.667 11.667 -86 35s-35 52 -35 86c0 33.333 11.667 61.666 35 84.999s52 35 86 35s62.667 -11.667 86 -35s35 -51.666 35 -84.999z" />
    <glyph glyph-name="j" unicode="j" horiz-adv-x="520" 
d="M352 -532h-184v1490h184v-1490zM381 1346c0 -34 -11.667 -62.667 -35 -86s-52 -35 -86 -35s-62.667 11.667 -86 35s-35 52 -35 86c0 33.333 11.667 61.666 35 84.999s52 35 86 35s62.667 -11.667 86 -35s35 -51.666 35 -84.999z" />
    <glyph glyph-name="k" unicode="k" horiz-adv-x="946" 
d="M944 0h-221l-395 506v-506h-185v1690h185v-1158l366 426h217l-391 -430z" />
    <glyph glyph-name="l" unicode="l" horiz-adv-x="455" 
d="M315 0h-184v1690h184v-1690z" />
    <glyph glyph-name="m" unicode="m" horiz-adv-x="1571" 
d="M1444 0l-184.003 -0.00292969v569c0 88.667 -14.167 153.834 -42.5 195.501s-73.166 62.5 -134.499 62.5c-71.333 0 -122.833 -27.667 -154.5 -83s-47.5 -145.666 -47.5 -270.999v-473h-185v569c0 92.667 -12.667 158.834 -38 198.501s-68.666 59.5 -129.999 59.5
c-71.333 0 -124.333 -29.833 -159 -89.5s-52 -151.167 -52 -274.5v-463h-184v958h184v-122c24.667 52 59.667 90.833 105 116.5s102 38.5 170 38.5c63.333 0 117.666 -14.667 162.999 -44s77.666 -71.333 96.999 -126c26.667 54.667 65.334 96.667 116.001 126
s110.334 44 179.001 44c94.667 0 167.834 -31.167 219.501 -93.5s77.5 -151.833 77.5 -268.5v-629z" />
    <glyph glyph-name="n" unicode="n" horiz-adv-x="1071" 
d="M944 0l-184.001 0.00195312v567c0 89.333 -16 155 -48 197s-82.333 63 -151 63c-78 0 -138.167 -31.333 -180.5 -94s-63.5 -153.334 -63.5 -272.001v-461h-184v958h184v-135c28.667 55.333 68.834 97.166 120.501 125.499s114.167 42.5 187.5 42.5
c99.333 0 177.333 -33 234 -99s85 -158.667 85 -278v-614z" />
    <glyph glyph-name="o" unicode="o" horiz-adv-x="1106" 
d="M877 483c0 96.667 -30.833 176.167 -92.5 238.5s-138.834 93.5 -231.501 93.5c-94 0 -171.5 -31 -232.5 -93s-91.5 -141.667 -91.5 -239c0 -98.667 30.833 -180 92.5 -244s138.834 -96 231.501 -96c94 0 171.5 32 232.5 96s91.5 145.333 91.5 244zM1061 483
c0 -144 -49.1689 -266.001 -147.502 -366.001s-219.166 -150 -362.499 -150c-142.667 0 -262.667 49.833 -360 149.5s-146 221.834 -146 366.501s48.333 265.5 145 362.5s217 145.5 361 145.5c144.667 0 265.834 -48.833 363.501 -146.5s146.5 -218.167 146.5 -361.5z" />
    <glyph glyph-name="p" unicode="p" horiz-adv-x="1139" 
d="M903 483c0 102 -26.666 182.833 -79.999 242.5s-125 89.5 -215 89.5s-161 -28.833 -213 -86.5s-78 -137.5 -78 -239.5c0 -102.667 27.667 -186 83 -250s126.666 -96 213.999 -96c86.667 0 156.5 31 209.5 93s79.5 144.333 79.5 247zM1087 485
c0 -153.333 -41.1689 -278.001 -123.502 -374.001s-189.833 -144 -322.5 -144c-76 0 -141.167 15.333 -195.5 46s-97.166 76.334 -128.499 137.001v-682h-184v1490h184v-137c35.333 56.667 79.5 99.167 132.5 127.5s115.5 42.5 187.5 42.5
c134.667 0 243.334 -46.667 326.001 -140s124 -215.333 124 -366z" />
    <glyph glyph-name="q" unicode="q" horiz-adv-x="1139" 
d="M821 489c0 102 -26.002 181.833 -78.002 239.5s-123 86.5 -213 86.5c-89.333 0 -160.666 -29.833 -213.999 -89.5s-80 -140.5 -80 -242.5c0 -102.667 26.333 -185 79 -247s122.334 -93 209.001 -93c88 0 159.5 32 214.5 96s82.5 147.333 82.5 250zM1006 -532
l-184.998 0.000976562v682c-31.333 -60.667 -74 -106.334 -128 -137.001s-119 -46 -195 -46c-132.667 0 -240.334 48 -323.001 144s-124 220.667 -124 374c0 150.667 41.5 272.667 124.5 366s191.833 140 326.5 140c71.333 0 133.666 -14.167 186.999 -42.5
s97.333 -70.833 132 -127.5v137h185v-1490z" />
    <glyph glyph-name="r" unicode="r" horiz-adv-x="719" 
d="M702 973l-38 -185.001c-13.333 8.66699 -27.5 15 -42.5 19s-30.5 6 -46.5 6c-81.333 0 -142.833 -33.5 -184.5 -100.5s-62.5 -166.5 -62.5 -298.5v-414h-185v958h185v-172c22 70.667 56.167 122.5 102.5 155.5s107.5 49.5 183.5 49.5c17.333 0 33.833 -1.66699 49.5 -5
s28.5 -7.66602 38.5 -12.999z" />
    <glyph glyph-name="s" unicode="s" horiz-adv-x="786" 
d="M735 260c0 -90 -32.501 -161.334 -97.501 -214.001s-153.833 -79 -266.5 -79c-86 0 -158.5 17.167 -217.5 51.5s-101.833 84.166 -128.5 149.499l155 98c17.333 -44.667 42.5 -78.334 75.5 -101.001s74.167 -34 123.5 -34c53.333 0 95.333 10.5 126 31.5
s46 50.167 46 87.5c0 41.333 -15 73.333 -45 96s-86.667 49.334 -170 80.001c-88.667 32 -154.5 71.833 -197.5 119.5s-64.5 104.834 -64.5 171.501c0 85.333 28.667 152.333 86 201s137 73 239 73c74 0 135.833 -15.167 185.5 -45.5s88.834 -77.166 117.501 -140.499
l-149 -92c-17.333 40 -38.833 69 -64.5 87s-57.5 27 -95.5 27c-44.667 0 -79 -9 -103 -27s-36 -43.667 -36 -77c0 -36 13.167 -65.5 39.5 -88.5s75.833 -46.833 148.5 -71.5c103.333 -33.333 178 -73.833 224 -121.5s69 -108.167 69 -181.5z" />
    <glyph glyph-name="t" unicode="t" horiz-adv-x="492" 
d="M492 795h-164v-795h-185v795h-102v163h102v383h185v-383h164v-163z" />
    <glyph glyph-name="u" unicode="u" horiz-adv-x="1049" 
d="M920 418c0 -153.333 -32.332 -266.833 -96.999 -340.5s-164.334 -110.5 -299.001 -110.5c-136.667 0 -236.667 36.167 -300 108.5s-95 186.5 -95 342.5v540h184v-540c0 -96.667 16 -166.667 48 -210s86.333 -65 163 -65c76 0 130.167 21.667 162.5 65
s48.5 113.333 48.5 210v540h185v-540z" />
    <glyph glyph-name="v" unicode="v" horiz-adv-x="911" 
d="M922 958l-465 -1003l-467 1003h209l258 -608l254 608h211z" />
    <glyph glyph-name="w" unicode="w" horiz-adv-x="1470" 
d="M1481 958l-465 -1003l-279 647l-280 -647l-467 1003h209l258 -608l276 656l283 -656l254 608h211z" />
    <glyph glyph-name="x" unicode="x" horiz-adv-x="1001" 
d="M995 0h-223l-274 371l-271 -371h-221l385 500l-352 458h219l248 -337l237 337h222l-357 -458z" />
    <glyph glyph-name="y" unicode="y" horiz-adv-x="991" 
d="M983 958l-612 -1490h-203l244 573l-404 917h201l297 -706l274 706h203z" />
    <glyph glyph-name="z" unicode="z" horiz-adv-x="1014" 
d="M926 0h-893l559 795h-508v163h838l-557 -794h561v-164z" />
    <glyph glyph-name="braceleft" unicode="{" horiz-adv-x="684" 
d="M606 -432c-140.667 0 -232.5 20.166 -275.5 60.499s-64.5 123.833 -64.5 250.5v432c0 72.667 -10.667 118.834 -32 138.501s-68.666 29.5 -141.999 29.5v156c73.333 0 120.666 9.83301 141.999 29.5s32 65.834 32 138.501v430c0 126.667 21.5 210.167 64.5 250.5
s134.833 60.5 275.5 60.5v-155c-75.333 0 -122.833 -8 -142.5 -24s-29.5 -60.667 -29.5 -134v-402c0 -86.667 -9.16699 -149.834 -27.5 -189.501s-51.5 -67.167 -99.5 -82.5c48 -15.333 81.167 -43 99.5 -83s27.5 -103.667 27.5 -191v-402
c0 -73.333 9.83301 -117.833 29.5 -133.5s67.167 -23.5 142.5 -23.5v-156z" />
    <glyph glyph-name="bar" unicode="|" horiz-adv-x="1167" 
d="M657 -504h-147v2048h147v-2048z" />
    <glyph glyph-name="braceright" unicode="}" horiz-adv-x="684" 
d="M606 479c-72.667 0 -119.834 -9.83203 -141.501 -29.499s-32.5 -65.834 -32.5 -138.501v-432c0 -126.667 -21.5 -210.167 -64.5 -250.5s-134.833 -60.5 -275.5 -60.5v156c76 0 123.667 7.83301 143 23.5s29 60.167 29 133.5v402c0 87.333 9.16699 151 27.5 191
s51.5 67.667 99.5 83c-48 15.333 -81.167 42.833 -99.5 82.5s-27.5 102.834 -27.5 189.501v402c0 73.333 -9.66699 118 -29 134s-67 24 -143 24v155c140.667 0 232.5 -20.167 275.5 -60.5s64.5 -123.833 64.5 -250.5v-430c0 -72.667 10.833 -118.834 32.5 -138.501
s68.834 -29.5 141.501 -29.5v-156z" />
    <glyph glyph-name="asciitilde" unicode="~" 
d="M1053 575c-41.333 -50 -84.832 -87.666 -130.499 -112.999s-93.167 -38 -142.5 -38c-28.667 0 -58.167 5.16699 -88.5 15.5s-63.5 26.833 -99.5 49.5c-46.667 30 -84.167 50.5 -112.5 61.5s-55.833 16.5 -82.5 16.5c-42.667 0 -84 -13 -124 -39
s-87.333 -70.333 -142 -133v172c40.667 50 84.167 87.833 130.5 113.5s94.5 38.5 144.5 38.5c28.667 0 58 -5.33301 88 -16s62.667 -27.334 98 -50.001c49.333 -30.667 88.166 -51.667 116.499 -63s54.833 -17 79.5 -17c42 0 82.667 13 122 39s87 71.333 143 136v-173z" />
    <glyph glyph-name="c4606" 
d="M1135 96c-56 -45.333 -115.666 -78.1641 -178.999 -98.4971s-137.666 -30.5 -222.999 -30.5c-148.667 0 -272.834 54.167 -372.501 162.5s-163.834 258.5 -192.501 450.5h-162l35 98h116c-1.33301 25.333 -2.16602 44.333 -2.49902 57s-0.5 25 -0.5 37
c0 13.333 0.166992 27.166 0.5 41.499s1.5 35.833 3.5 64.5l-152 1l35 100h129c31.333 182.667 100 328 206 436s232.667 162 380 162c77.333 0 145.833 -10 205.5 -30s117.5 -53 173.5 -99v-193c-64 58.667 -123.333 99.667 -178 123s-118.334 35 -191.001 35
c-101.333 0 -188.5 -38.667 -261.5 -116s-122.5 -183.333 -148.5 -318h635l-35 -100h-614c-1.33301 -12.667 -2.33301 -26.334 -3 -41.001s-1 -37.334 -1 -68.001c0 -11.333 0.333008 -23.333 1 -36l3 -56h551l-35 -98h-504c26 -142 71.833 -252.333 137.5 -331
s145.5 -118 239.5 -118c77.333 0 147 12.5 209 37.5s127 66.5 195 124.5v-197z" />
    <glyph glyph-name="c4606" unicode="&#x20ac;" 
d="M1135 96c-56 -45.333 -115.666 -78.1641 -178.999 -98.4971s-137.666 -30.5 -222.999 -30.5c-148.667 0 -272.834 54.167 -372.501 162.5s-163.834 258.5 -192.501 450.5h-162l35 98h116c-1.33301 25.333 -2.16602 44.333 -2.49902 57s-0.5 25 -0.5 37
c0 13.333 0.166992 27.166 0.5 41.499s1.5 35.833 3.5 64.5l-152 1l35 100h129c31.333 182.667 100 328 206 436s232.667 162 380 162c77.333 0 145.833 -10 205.5 -30s117.5 -53 173.5 -99v-193c-64 58.667 -123.333 99.667 -178 123s-118.334 35 -191.001 35
c-101.333 0 -188.5 -38.667 -261.5 -116s-122.5 -183.333 -148.5 -318h635l-35 -100h-614c-1.33301 -12.667 -2.33301 -26.334 -3 -41.001s-1 -37.334 -1 -68.001c0 -11.333 0.333008 -23.333 1 -36l3 -56h551l-35 -98h-504c26 -142 71.833 -252.333 137.5 -331
s145.5 -118 239.5 -118c77.333 0 147 12.5 209 37.5s127 66.5 195 124.5v-197z" />
    <glyph glyph-name="figspace" unicode="&#xa0;" 
 />
    <glyph glyph-name="figspace" unicode="&#x2007;" 
 />
    <glyph glyph-name="exclamdown" unicode="&#xa1;" horiz-adv-x="657" 
d="M422 0h-184v1139h184v-1139zM457 1450c0 -35.333 -12.333 -65.333 -37 -90s-54.667 -37 -90 -37s-65.333 12.333 -90 37s-37 54.667 -37 90s12.333 65.333 37 90s54.667 37 90 37s65.333 -12.333 90 -37s37 -54.667 37 -90z" />
    <glyph glyph-name="cent" unicode="&#xa2;" 
d="M643 449v659c-84.667 -14.667 -151.167 -51.667 -199.5 -111s-72.5 -134.333 -72.5 -225c0 -86 24.167 -157.833 72.5 -215.5s114.833 -93.5 199.5 -107.5zM987 334c-36.667 -20.667 -74.5 -36.334 -113.5 -47.001s-80.833 -17 -125.5 -19v-198h-105v198
c-137.333 12.667 -247.833 65.334 -331.5 158.001s-125.5 209.334 -125.5 350.001c0 140 41.5 256.167 124.5 348.5s193.833 146.166 332.5 161.499v178h105v-174c43.333 -2 83.333 -8.33301 120 -19s73 -26 109 -46v-197c-33.333 24.667 -69.833 44.5 -109.5 59.5
s-79.5 23.833 -119.5 26.5v-672c46 2.66699 89.333 11.5 130 26.5s77 35.5 109 61.5v-196z" />
    <glyph glyph-name="sterling" unicode="&#xa3;" 
d="M1137 150c-35.333 -60 -78.3281 -105.5 -128.995 -136.5s-106.667 -46.5 -168 -46.5c-38 0 -76.667 4.66699 -116 14s-83 24.666 -131 45.999c-3.33301 1.33301 -10 4.33301 -20 9c-86.667 38.667 -152.667 58 -198 58c-42 0 -82.667 -10.833 -122 -32.5
s-74.666 -53.167 -105.999 -94.5l-79 131c27.333 36 59.666 66.167 96.999 90.5s78.666 42.166 123.999 53.499c25.333 34.667 43.833 68.334 55.5 101.001s17.5 67 17.5 103c0 28 -2.83301 56.333 -8.5 85s-14.167 56.334 -25.5 83.001h-258v107h206
c-2.66699 6 -7.5 15 -14.5 27s-11.5 20 -13.5 24c-32.667 60 -56.834 119.167 -72.501 177.5s-23.5 117.166 -23.5 176.499c0 130 45.167 237.667 135.5 323s209.5 128 357.5 128c131.333 0 237.666 -33.167 318.999 -99.5s130.666 -160.166 147.999 -281.499l-176 -69
c-6.66699 90.667 -35.5 161 -86.5 211s-119.833 75 -206.5 75c-90 0 -163.667 -27.667 -221 -83s-86 -124.666 -86 -207.999c0 -48.667 8.5 -103.334 25.5 -164.001s41.167 -122.667 72.5 -186l12.5 -25.5l12.5 -25.5h395v-107h-350c6 -17.333 10.833 -36.5 14.5 -57.5
s5.5 -39.833 5.5 -56.5c0 -50 -8.83301 -95.833 -26.5 -137.5s-44.167 -79.834 -79.5 -114.501c29.333 0 58.166 -3.83301 86.499 -11.5s69.166 -24.5 122.499 -50.5c36.667 -18 71 -31.667 103 -41s61.667 -14 89 -14c40.667 0 77.334 10.333 110.001 31
s63.667 53.334 93 98.001z" />
    <glyph glyph-name="currency" unicode="&#xa4;" 
d="M944 1034c0 97.333 -34.333 180.333 -103 249s-151.667 103 -249 103s-180.333 -34.333 -249 -103s-103 -151.667 -103 -249s34.333 -180.666 103 -249.999s151.667 -104 249 -104s180.333 34.667 249 104s103 152.666 103 249.999zM1135 567l-75.998 -78l-170 170
c-42 -32 -88.5 -56.667 -139.5 -74s-103.5 -26 -157.5 -26s-106.167 8.66699 -156.5 26s-96.5 42 -138.5 74l-170 -170l-78 78l170 170c-32.667 42.667 -57.834 89.5 -75.501 140.5s-26.5 103.167 -26.5 156.5s8.66699 105.166 26 155.499s42.666 96.833 75.999 139.5
l-170 170l78 78l170 -170c42 32.667 88.167 57.5 138.5 74.5s102.5 25.5 156.5 25.5s106.5 -8.5 157.5 -25.5s97.5 -41.833 139.5 -74.5l170 170l76 -78l-170 -170c32.667 -42.667 57.834 -89.167 75.501 -139.5s26.5 -102.166 26.5 -155.499s-8.83301 -105.5 -26.5 -156.5
s-42.834 -97.833 -75.501 -140.5z" />
    <glyph glyph-name="yen" unicode="&#xa5;" 
d="M1167 1544l-290 -514h290v-100h-346l-114 -201h460v-98h-479v-631h-184v631h-486v98h465l-116 201h-349v100h295l-295 514h205l375 -678l367 678h202z" />
    <glyph glyph-name="brokenbar" unicode="&#xa6;" horiz-adv-x="1167" 
d="M657 -371h-147v758h147v-758zM657 653h-147v758h147v-758z" />
    <glyph glyph-name="section" unicode="&#xa7;" 
d="M854 580c0 75.333 -25.167 137.832 -75.5 187.499s-112.5 74.5 -186.5 74.5c-76 0 -138.667 -25.5 -188 -76.5s-74 -114.5 -74 -190.5c0 -74.667 25 -136 75 -184s112.333 -72 187 -72c72.667 0 134.5 25.333 185.5 76s76.5 112.334 76.5 185.001zM1028 579.999
c0 -76 -20.002 -145.997 -60.002 -209.997s-91 -109.667 -153 -137c50.667 -26.667 91.667 -69.167 123 -127.5s47 -121.5 47 -189.5c0 -100.667 -38.667 -187 -116 -259s-169.666 -108 -276.999 -108c-117.333 0 -211.833 34.167 -283.5 102.5s-107.5 159.833 -107.5 274.5
h174c0 -60.667 21 -111.334 63 -152.001s93.333 -61 154 -61c60 0 111.167 21 153.5 63s63.5 92 63.5 150c0 63.333 -21.333 116.5 -64 159.5s-96.334 64.5 -161.001 64.5c-122 0 -223.833 40.333 -305.5 121s-122.5 182 -122.5 304c0 78.667 20 150.667 60 216
s91.667 111 155 137c-46.667 30 -82.667 71.167 -108 123.5s-38 110.833 -38 175.5c0 96.667 36 179.167 108 247.5s158.333 102.5 259 102.5c108.667 0 195.834 -33.167 261.501 -99.5s98.5 -154.833 98.5 -265.5h-174c0 57.333 -17.667 105.166 -53 143.499
s-79.666 57.5 -132.999 57.5s-98.5 -19.333 -135.5 -58s-55.5 -84.667 -55.5 -138c0 -58 19.5 -106.667 58.5 -146s85.833 -59 140.5 -59c124.667 0 227.167 -40.833 307.5 -122.5s120.5 -184.834 120.5 -309.501z" />
    <glyph glyph-name="dieresis" unicode="&#xa8;" horiz-adv-x="963" 
d="M389 1239c0 -29.333 -9.83398 -53.666 -29.501 -72.999s-43.834 -29 -72.501 -29c-29.333 0 -54.166 9.83301 -74.499 29.5s-30.5 43.834 -30.5 72.501c0 27.333 10.5 51.166 31.5 71.499s45.5 30.5 73.5 30.5c28.667 0 52.834 -9.83301 72.501 -29.5
s29.5 -43.834 29.5 -72.501zM779.999 1239c0 -29.333 -9.66992 -53.666 -29.0029 -72.999s-43.666 -29 -72.999 -29s-54.166 9.83301 -74.499 29.5s-30.5 43.834 -30.5 72.501c0 27.333 10.5 51.166 31.5 71.499s45.5 30.5 73.5 30.5c28.667 0 52.834 -9.83301 72.501 -29.5
s29.5 -43.834 29.5 -72.501z" />
    <glyph glyph-name="copyright" unicode="&#xa9;" horiz-adv-x="1638" 
d="M1163 381c-44 -30 -93.667 -53.499 -149 -70.499s-109.333 -25.5 -162 -25.5c-146 0 -264.833 46.333 -356.5 139s-137.5 213.334 -137.5 362.001c0 146 46.167 265.5 138.5 358.5s210.833 139.5 355.5 139.5c58.667 0 115 -8.83301 169 -26.5
s101.333 -42.834 142 -75.501v-166c-46 41.333 -95 73.166 -147 95.499s-103.333 33.5 -154 33.5c-112 0 -199.667 -32 -263 -96s-95 -151.667 -95 -263c0 -108.667 31.833 -196.167 95.5 -262.5s147.167 -99.5 250.5 -99.5c58 0 112.5 9.66699 163.5 29
s100.833 49.333 149.5 90v-162zM1520 772.001c0 193.333 -68.333 358.5 -205 495.5s-302 205.5 -496 205.5c-193.333 0 -358.333 -68.5 -495 -205.5s-205 -302.167 -205 -495.5s68.333 -358.333 205 -495s301.667 -205 495 -205c194 0 359.333 68.333 496 205
s205 301.667 205 495zM1624 772.001c0 -222 -78.5 -411.667 -235.5 -569s-346.833 -236 -569.5 -236c-222 0 -411.667 78.667 -569 236s-236 347 -236 569s78.667 411.667 236 569s347 236 569 236c222.667 0 412.5 -78.667 569.5 -236s235.5 -347 235.5 -569z" />
    <glyph glyph-name="ordfeminine" unicode="&#xaa;" horiz-adv-x="684" 
d="M489 1262c0 49.333 -15.833 91 -47.5 125s-70.167 51 -115.5 51c-46 0 -84.5 -17 -115.5 -51s-46.5 -75.667 -46.5 -125c0 -50 15.5 -91.667 46.5 -125s69.5 -50 115.5 -50s84.667 16.833 116 50.5s47 75.167 47 124.5zM623 977h-134.002v76
c-19.333 -29.333 -44.166 -52 -74.499 -68s-64.166 -24 -101.499 -24c-84 0 -152.333 28 -205 84s-79 128.333 -79 217c0 88 27 160.5 81 217.5s121.667 85.5 203 85.5c36.667 0 70.5 -8.33301 101.5 -25s55.833 -40 74.5 -70v74h134v-567z" />
    <glyph glyph-name="guillemotleft" unicode="&#xab;" horiz-adv-x="1071" 
d="M535 88l-119 -74l-291 465l291 467l119 -72l-254 -395zM918 88l-119 -74l-291 465l291 467l119 -72l-252 -395z" />
    <glyph glyph-name="logicalnot" unicode="&#xac;" 
d="M1067 242h-145v487h-844v141h989v-628z" />
    <glyph glyph-name="sfthyphen" unicode="&#xad;" horiz-adv-x="680" 
d="M586 453h-492v172h492v-172z" />
    <glyph glyph-name="registered" unicode="&#xae;" horiz-adv-x="1638" 
d="M969 1001c0 50.667 -15 88 -45 112s-76.667 36 -140 36h-59v-281h59c63.333 0 110 10.833 140 32.5s45 55.167 45 100.5zM1174 303h-159.999l-275 449h-14v-449h-135v963h198c101.333 0 180.333 -24 237 -72s85 -113 85 -195c0 -64 -20.333 -117 -61 -159
s-97.334 -67.333 -170.001 -76zM1520 772c0 193.333 -68.333 358.5 -205 495.5s-302 205.5 -496 205.5c-193.333 0 -358.333 -68.5 -495 -205.5s-205 -302.167 -205 -495.5s68.333 -358.333 205 -495s301.667 -205 495 -205c194 0 359.333 68.333 496 205
s205 301.667 205 495zM1624 772c0 -222 -78.5 -411.667 -235.5 -569s-346.833 -236 -569.5 -236c-222 0 -411.667 78.667 -569 236s-236 347 -236 569s78.667 411.667 236 569s347 236 569 236c222.667 0 412.5 -78.667 569.5 -236s235.5 -347 235.5 -569z" />
    <glyph glyph-name="overscore" unicode="&#xaf;" horiz-adv-x="1024" 
d="M0 1565h1024v-172h-1024v172z" />
    <glyph glyph-name="degree" unicode="&#xb0;" horiz-adv-x="819" 
d="M608 1278c0 54 -19.501 100.665 -58.501 139.998s-85.5 59 -139.5 59c-55.333 0 -102.333 -19.333 -141 -58s-58 -85.667 -58 -141s19.333 -102.666 58 -141.999s85.667 -59 141 -59c54.667 0 101.334 19.833 140.001 59.5s58 86.834 58 141.501zM701.999 1276
c0 -80 -28.668 -148.499 -86.001 -205.499s-126.666 -85.5 -207.999 -85.5c-82 0 -151 28.167 -207 84.5s-84 125.166 -84 206.499c0 82 28.5 151.667 85.5 209s126.167 86 207.5 86c80 0 148.667 -29 206 -87s86 -127.333 86 -208z" />
    <glyph glyph-name="plusminus" unicode="&#xb1;" 
d="M1128 0h-1071v141h1071v-141zM1128 612h-462v-360h-146v360h-463v142h463v360h146v-360h462v-142z" />
    <glyph glyph-name="twosuperior" unicode="&#xb2;" horiz-adv-x="709" 
d="M678 643l-641 0.000976562l332 371c62 69.333 104.667 123.833 128 163.5s35 77.167 35 112.5c0 45.333 -14.833 81 -44.5 107s-70.5 39 -122.5 39c-52.667 0 -94.167 -16 -124.5 -48s-45.5 -74.667 -45.5 -128h-136c0 93.333 27.833 167.5 83.5 222.5
s131.167 82.5 226.5 82.5c92 0 165.5 -24.333 220.5 -73s82.5 -113.334 82.5 -194.001c0 -58.667 -16 -116 -48 -172s-90.333 -127.667 -175 -215l-136 -139h365v-129z" />
    <glyph glyph-name="threesuperior" unicode="&#xb3;" horiz-adv-x="709" 
d="M666 897c0 -83.333 -28.333 -149.833 -85 -199.5s-133 -74.5 -229 -74.5c-89.333 0 -160.166 25.167 -212.499 75.5s-78.5 117.166 -78.5 200.499h146c0 -44 13.167 -79.5 39.5 -106.5s62.166 -40.5 107.499 -40.5c50 0 90.167 14 120.5 42s45.5 63.667 45.5 107
c0 46 -14.5 83.5 -43.5 112.5s-67.167 43.5 -114.5 43.5h-34v119h39c44 0 78.5 11 103.5 33s37.5 52.333 37.5 91c0 41.333 -13 74.333 -39 99s-61.667 37 -107 37s-81.833 -11.333 -109.5 -34s-41.5 -51.667 -41.5 -87h-131c2 73.333 28.833 133.333 80.5 180
s118.834 70 201.501 70c88 0 157.5 -22.5 208.5 -67.5s76.5 -105.167 76.5 -180.5c0 -53.333 -12.333 -97 -37 -131s-59.334 -56 -104.001 -66c50.667 -12.667 90 -38.667 118 -78s42 -87.666 42 -144.999z" />
    <glyph glyph-name="acute" unicode="&#xb4;" horiz-adv-x="737" 
d="M616 1335l-307 -260l-65 74l282 295z" />
    <glyph glyph-name="mu" unicode="&#xb5;" horiz-adv-x="1049" 
d="M956 958l-103.998 -524.001c-13.333 -66.667 -22.166 -114.167 -26.499 -142.5s-6.5 -51.166 -6.5 -68.499c0 -30.667 5 -53 15 -67s27 -21 51 -21c10 0 20.333 1.16699 31 3.5s22 6.16602 34 11.499v-168c-9.33301 -3.33301 -22.833 -6.66602 -40.5 -9.99902
s-30.834 -5 -39.501 -5c-68 0 -118.333 13.667 -151 41s-53.334 73 -62.001 137c-31.333 -61.333 -67.333 -106.333 -108 -135s-89.334 -43 -146.001 -43c-46.667 0 -85.5 11.833 -116.5 35.5s-50.833 55.5 -59.5 95.5l-125 -630h-188l293 1490h188l-84 -419
c-8.66699 -44.667 -15.167 -86.5 -19.5 -125.5s-6.5 -73.833 -6.5 -104.5c0 -60 10.333 -104 31 -132s54 -42 100 -42c62 0 115 31.167 159 93.5s78.333 154.833 103 277.5l92 452h186z" />
    <glyph glyph-name="paragraph" unicode="&#xb6;" 
d="M1063 1427h-129.001v-1427h-123v1427h-174v-1427h-123v846c-127.333 2.66699 -227.833 35.667 -301.5 99s-110.5 147 -110.5 251s37.333 188 112 252s173.334 96 296.001 96h553v-117z" />
    <glyph glyph-name="periodcentered" unicode="&#xb7;" horiz-adv-x="592" 
d="M424 788c0 -34.667 -12.333 -64.334 -37 -89.001s-54.667 -37 -90 -37s-65.333 12.333 -90 37s-37 54.334 -37 89.001c0 36 12.333 66.167 37 90.5s54.667 36.5 90 36.5s65.333 -12.167 90 -36.5s37 -54.5 37 -90.5z" />
    <glyph glyph-name="cedilla" unicode="&#xb8;" horiz-adv-x="676" 
d="M469 -113l-238 -319l-81 57l200 342z" />
    <glyph glyph-name="onesuperior" unicode="&#xb9;" horiz-adv-x="709" 
d="M473 643h-141v768h-180l69 133h252v-901z" />
    <glyph glyph-name="ordmasculine" unicode="&#xba;" horiz-adv-x="664" 
d="M500 1264c0 50 -16.667 92.501 -50 127.501s-73.333 52.5 -120 52.5c-47.333 0 -87.166 -17.333 -119.499 -52s-48.5 -77.334 -48.5 -128.001c0 -51.333 16.167 -94.666 48.5 -129.999s72.166 -53 119.499 -53c48 0 88.333 17.667 121 53s49 78.666 49 129.999zM635 1264
c0 -84 -29.498 -155.501 -88.498 -214.501s-130.5 -88.5 -214.5 -88.5c-84.667 0 -156.334 29.333 -215.001 88s-88 130.334 -88 215.001c0 84 29.167 155.167 87.5 213.5s130.166 87.5 215.499 87.5c84 0 155.5 -29.333 214.5 -88s88.5 -129.667 88.5 -213z" />
    <glyph glyph-name="guillemotright" unicode="&#xbb;" horiz-adv-x="1071" 
d="M563 479l-289 -465l-120 74l254 391l-254 395l120 72zM946 479l-291 -465l-120 74l253 391l-253 395l120 72z" />
    <glyph glyph-name="onequarter" unicode="&#xbc;" horiz-adv-x="1776" 
d="M1444 315v299l-256 -299h256zM473 643h-141v768h-180l69 133h252v-901zM1436 1544l-940 -1544h-125l942 1544h123zM1714 201h-131v-201h-141v201h-494l635 745v-631h131v-114z" />
    <glyph glyph-name="onehalf" unicode="&#xbd;" horiz-adv-x="1776" 
d="M465 643h-141v768h-183l70 133h254v-901zM1427 1544l-942 -1544h-125l943 1544h124zM1769 0l-641.001 -0.000976562c38.667 40.667 150 164.334 334 371.001c60 66.667 102 120 126 160s36 78.667 36 116c0 45.333 -15 81 -45 107s-71 39 -123 39s-93 -16 -123 -48
s-45 -75 -45 -129h-137c0 94 27.833 168.5 83.5 223.5s130.834 82.5 225.501 82.5c92.667 0 166.667 -24.5 222 -73.5s83 -113.5 83 -193.5c0 -59.333 -16.167 -117.333 -48.5 -174s-90.5 -127.667 -174.5 -213l-137 -139h364v-129z" />
    <glyph glyph-name="threequarters" unicode="&#xbe;" horiz-adv-x="1776" 
d="M1444 315v299l-256 -299h256zM666 897c0 -83.333 -28.333 -149.833 -85 -199.5s-133 -74.5 -229 -74.5c-89.333 0 -160.166 25.167 -212.499 75.5s-78.5 117.166 -78.5 200.499h146c0 -44 13.167 -79.5 39.5 -106.5s62.166 -40.5 107.499 -40.5c50 0 90.167 14 120.5 42
s45.5 63.667 45.5 107c0 46 -14.5 83.5 -43.5 112.5s-67.167 43.5 -114.5 43.5h-34v119h39c44 0 78.5 11 103.5 33s37.5 52.333 37.5 91c0 41.333 -13 74.333 -39 99s-61.667 37 -107 37s-81.833 -11.333 -109.5 -34s-41.5 -51.667 -41.5 -87h-131
c2 73.333 28.833 133.333 80.5 180s118.834 70 201.501 70c88 0 157.5 -22.5 208.5 -67.5s76.5 -105.167 76.5 -180.5c0 -53.333 -12.333 -97 -37 -131s-59.334 -56 -104.001 -66c50.667 -12.667 90 -38.667 118 -78s42 -87.666 42 -144.999zM1456 1544l-942 -1544h-125
l942 1544h125zM1714 201h-131v-201h-141v201h-494l635 745v-631h131v-114z" />
    <glyph glyph-name="questiondown" unicode="&#xbf;" horiz-adv-x="928" 
d="M819 342c0 -118.667 -31.001 -210.833 -93.001 -276.5s-148.333 -98.5 -259 -98.5c-109.333 0 -196 30.167 -260 90.5s-96 142.166 -96 245.499c0 78.667 20.667 144.834 62 198.501s116 107.167 224 160.5c90 44.667 149 81.5 177 110.5s42 61.5 42 97.5
c0 34.667 -13.833 66.334 -41.5 95.001s-59.5 43 -95.5 43c-44 0 -79.667 -15.5 -107 -46.5s-41.333 -71.5 -42 -121.5h-176c0 101.333 29 181.833 87 241.5s137.333 89.5 238 89.5c94 0 171.167 -27.833 231.5 -83.5s90.5 -126.834 90.5 -213.501
c0 -78 -21.167 -143.167 -63.5 -195.5s-125.166 -107.833 -248.499 -166.5c-67.333 -32 -116.5 -65.5 -147.5 -100.5s-46.5 -73.833 -46.5 -116.5c0 -45.333 16.667 -84 50 -116s74 -48 122 -48c54 0 96.833 19.167 128.5 57.5s47.5 89.5 47.5 153.5h176zM605.999 1450
c0 -35.333 -12.333 -65.333 -37 -90s-54.667 -37 -90 -37s-65.333 12.333 -90 37s-37 54.667 -37 90s12.333 65.333 37 90s54.667 37 90 37s65.333 -12.333 90 -37s37 -54.667 37 -90z" />
    <glyph glyph-name="Agrave" unicode="&#xc0;" horiz-adv-x="1440" 
d="M969 610l-248 561l-248 -561h496zM1450 0h-213l-197 446h-641l-196 -446h-213l731 1589zM846 1735l-66 -74l-307 260l90 109z" />
    <glyph glyph-name="Aacute" unicode="&#xc1;" horiz-adv-x="1440" 
d="M969 610l-248 561l-248 -561h496zM1450 0h-213l-197 446h-641l-196 -446h-213l731 1589zM968 1921l-307 -260l-65 74l282 295z" />
    <glyph glyph-name="Acircumflex" unicode="&#xc2;" horiz-adv-x="1440" 
d="M969 610l-248 561l-248 -561h496zM1450 0h-213l-197 446h-641l-196 -446h-213l731 1589zM1012 1737l-59 -76l-232 191l-231 -191l-60 76l291 289z" />
    <glyph glyph-name="Atilde" unicode="&#xc3;" horiz-adv-x="1440" 
d="M969 610l-248 561l-248 -561h496zM1450 0h-213l-197 446h-641l-196 -446h-213l731 1589zM1057 1868c-21.333 -54 -49.168 -94.832 -83.501 -122.499s-73.5 -41.5 -117.5 -41.5c-22 0 -45 4.33301 -69 13s-51 22.334 -81 41.001l-11 7c-53.333 33.333 -91 50 -113 50
c-26 0 -47.5 -6.33301 -64.5 -19s-33.833 -36.334 -50.5 -71.001l-80 49c22.667 54 50.5 94.5 83.5 121.5s71.5 40.5 115.5 40.5c22 0 45 -4.33301 69 -13s51 -22.334 81 -41.001v0c58.667 -38 100.334 -57 125.001 -57c26 0 47.333 6 64 18s34 36 52 72z" />
    <glyph glyph-name="Adieresis" unicode="&#xc4;" horiz-adv-x="1440" 
d="M969 610l-248 561l-248 -561h496zM1450 0h-213l-197 446h-641l-196 -446h-213l731 1589zM629 1825c0 -29.333 -9.83398 -53.666 -29.501 -72.999s-43.834 -29 -72.501 -29c-29.333 0 -54.166 9.83301 -74.499 29.5s-30.5 43.834 -30.5 72.501
c0 27.333 10.5 51.166 31.5 71.499s45.5 30.5 73.5 30.5c28.667 0 52.834 -9.83301 72.501 -29.5s29.5 -43.834 29.5 -72.501zM1020 1825c0 -29.333 -9.66992 -53.666 -29.0029 -72.999s-43.666 -29 -72.999 -29s-54.166 9.83301 -74.499 29.5s-30.5 43.834 -30.5 72.501
c0 27.333 10.5 51.166 31.5 71.499s45.5 30.5 73.5 30.5c28.667 0 52.834 -9.83301 72.501 -29.5s29.5 -43.834 29.5 -72.501z" />
    <glyph glyph-name="Aring" unicode="&#xc5;" horiz-adv-x="1440" 
d="M969 610l-248 561l-248 -561h496zM1450 0h-213l-197 446h-641l-196 -446h-213l731 1589zM866 1880c0 40.667 -14.333 75.5 -43 104.5s-62.667 43.5 -102 43.5c-40.667 0 -75.167 -14.5 -103.5 -43.5s-42.5 -63.833 -42.5 -104.5c0 -40 14.167 -74.167 42.5 -102.5
s62.833 -42.5 103.5 -42.5c40 0 74.167 14.167 102.5 42.5s42.5 62.5 42.5 102.5zM958 1880c0 -65.333 -23.167 -121.166 -69.5 -167.499s-102.166 -69.5 -167.499 -69.5s-121 23.167 -167 69.5s-69 102.166 -69 167.499c0 66 23 122.167 69 168.5s101.667 69.5 167 69.5
s121.166 -23.167 167.499 -69.5s69.5 -102.5 69.5 -168.5z" />
    <glyph glyph-name="AE" unicode="&#xc6;" horiz-adv-x="2042" 
d="M975 610l-254 564l-248 -564h502zM1249 0l-200 446h-650l-196 -446h-213l710 1544h666l82 -180h-623l207 -451h619l80 -180h-619l256 -553h610l82 -180h-811z" />
    <glyph glyph-name="Ccedilla" unicode="&#xc7;" horiz-adv-x="1354" 
d="M1296 96c-58.667 -38 -129.001 -69 -211.001 -93s-159 -36 -231 -36c-232 0 -419.333 74.5 -562 223.5s-214 343.5 -214 583.5c0 232 72.667 423.833 218 575.5s332 227.5 560 227.5c89.333 0 169.833 -10.5 241.5 -31.5s137.834 -53.5 198.501 -97.5v-215
c-66.667 54.667 -134.5 95.667 -203.5 123s-140.167 41 -213.5 41c-179.333 0 -325.666 -58.333 -438.999 -175s-170 -266 -170 -448c0 -184 54.167 -334.5 162.5 -451.5s248.166 -175.5 419.499 -175.5c82.667 0 161 14 235 42s143.667 70 209 126v-219zM960.999 -113
l-238 -319l-81 57l200 342z" />
    <glyph glyph-name="Egrave" unicode="&#xc8;" horiz-adv-x="1067" 
d="M954 0h-811v1544h811v-180h-618v-451h618v-180h-618v-553h618v-180zM672 1735l-66 -74l-307 260l90 109z" />
    <glyph glyph-name="Eacute" unicode="&#xc9;" horiz-adv-x="1067" 
d="M954 0h-811v1544h811v-180h-618v-451h618v-180h-618v-553h618v-180zM794 1921l-307 -260l-65 74l282 295z" />
    <glyph glyph-name="Ecircumflex" unicode="&#xca;" horiz-adv-x="1067" 
d="M954 0h-811v1544h811v-180h-618v-451h618v-180h-618v-553h618v-180zM838 1737l-59 -76l-232 191l-231 -191l-60 76l291 289z" />
    <glyph glyph-name="Edieresis" unicode="&#xcb;" horiz-adv-x="1067" 
d="M954 0h-811v1544h811v-180h-618v-451h618v-180h-618v-553h618v-180zM455 1825c0 -29.333 -9.83398 -53.666 -29.501 -72.999s-43.834 -29 -72.501 -29c-29.333 0 -54.166 9.83301 -74.499 29.5s-30.5 43.834 -30.5 72.501c0 27.333 10.5 51.166 31.5 71.499
s45.5 30.5 73.5 30.5c28.667 0 52.834 -9.83301 72.501 -29.5s29.5 -43.834 29.5 -72.501zM845.999 1825c0 -29.333 -9.66992 -53.666 -29.0029 -72.999s-43.666 -29 -72.999 -29s-54.166 9.83301 -74.499 29.5s-30.5 43.834 -30.5 72.501c0 27.333 10.5 51.166 31.5 71.499
s45.5 30.5 73.5 30.5c28.667 0 52.834 -9.83301 72.501 -29.5s29.5 -43.834 29.5 -72.501z" />
    <glyph glyph-name="Igrave" unicode="&#xcc;" horiz-adv-x="475" 
d="M334 0h-193v1544h193v-1544zM363 1735l-66 -74l-307 260l90 109z" />
    <glyph glyph-name="Iacute" unicode="&#xcd;" horiz-adv-x="475" 
d="M334 0h-193v1544h193v-1544zM485 1921l-307 -260l-65 74l282 295z" />
    <glyph glyph-name="Icircumflex" unicode="&#xce;" horiz-adv-x="475" 
d="M334 0h-193v1544h193v-1544zM528 1737l-59 -76l-232 191l-231 -191l-60 76l291 289z" />
    <glyph glyph-name="Idieresis" unicode="&#xcf;" horiz-adv-x="475" 
d="M334 0h-193v1544h193v-1544zM145 1825c0 -29.333 -9.83398 -53.666 -29.501 -72.999s-43.834 -29 -72.501 -29c-29.333 0 -54.166 9.83301 -74.499 29.5s-30.5 43.834 -30.5 72.501c0 27.333 10.5 51.166 31.5 71.499s45.5 30.5 73.5 30.5
c28.667 0 52.834 -9.83301 72.501 -29.5s29.5 -43.834 29.5 -72.501zM535.999 1825c0 -29.333 -9.66992 -53.666 -29.0029 -72.999s-43.666 -29 -72.999 -29s-54.166 9.83301 -74.499 29.5s-30.5 43.834 -30.5 72.501c0 27.333 10.5 51.166 31.5 71.499s45.5 30.5 73.5 30.5
c28.667 0 52.834 -9.83301 72.501 -29.5s29.5 -43.834 29.5 -72.501z" />
    <glyph glyph-name="Eth" unicode="&#xd0;" horiz-adv-x="1362" 
d="M1108 772c0 192 -54.332 338.667 -162.999 440s-266.667 152 -474 152h-135v-508h375v-154h-375v-522h121c221.333 0 385.166 48.833 491.499 146.5s159.5 246.167 159.5 445.5zM1300 770c0 -252.667 -72.667 -444.167 -218 -574.5s-358 -195.5 -638 -195.5h-301v702
h-143v154h143v688h306c274 0 484.333 -67 631 -201s220 -325 220 -573z" />
    <glyph glyph-name="Ntilde" unicode="&#xd1;" horiz-adv-x="1608" 
d="M1464 -45l-1128 1171v-1126h-193v1589l1129 -1169v1124h192v-1589zM1120 1868c-21.333 -54 -49.168 -94.832 -83.501 -122.499s-73.5 -41.5 -117.5 -41.5c-22 0 -45 4.33301 -69 13s-51 22.334 -81 41.001l-11 7c-53.333 33.333 -91 50 -113 50
c-26 0 -47.5 -6.33301 -64.5 -19s-33.833 -36.334 -50.5 -71.001l-80 49c22.667 54 50.5 94.5 83.5 121.5s71.5 40.5 115.5 40.5c22 0 45 -4.33301 69 -13s51 -22.334 81 -41.001v0c58.667 -38 100.334 -57 125.001 -57c26 0 47.333 6 64 18s34 36 52 72z" />
    <glyph glyph-name="Ograve" unicode="&#xd2;" horiz-adv-x="1696" 
d="M1442 772c0 174.667 -57.333 322.5 -172 443.5s-255.334 181.5 -422.001 181.5c-180 0 -323.333 -61.167 -430 -183.5s-160 -269.5 -160 -441.5c0 -174.667 56.667 -322.5 170 -443.5s253.333 -181.5 420 -181.5s307.334 60.667 422.001 182s172 269 172 443zM1634 772
c0 -225.333 -76.167 -415.833 -228.5 -571.5s-338.166 -233.5 -557.499 -233.5c-218 0 -403.667 78.167 -557 234.5s-230 346.5 -230 570.5c0 227.333 75.833 418.333 227.5 573s338.167 232 559.5 232s407.666 -77.333 558.999 -232s227 -345.667 227 -573zM973 1735
l-66 -74l-307 260l90 109z" />
    <glyph glyph-name="Oacute" unicode="&#xd3;" horiz-adv-x="1696" 
d="M1442 772c0 174.667 -57.333 322.5 -172 443.5s-255.334 181.5 -422.001 181.5c-180 0 -323.333 -61.167 -430 -183.5s-160 -269.5 -160 -441.5c0 -174.667 56.667 -322.5 170 -443.5s253.333 -181.5 420 -181.5s307.334 60.667 422.001 182s172 269 172 443zM1634 772
c0 -225.333 -76.167 -415.833 -228.5 -571.5s-338.166 -233.5 -557.499 -233.5c-218 0 -403.667 78.167 -557 234.5s-230 346.5 -230 570.5c0 227.333 75.833 418.333 227.5 573s338.167 232 559.5 232s407.666 -77.333 558.999 -232s227 -345.667 227 -573zM1095 1921
l-307 -260l-65 74l282 295z" />
    <glyph glyph-name="Ocircumflex" unicode="&#xd4;" horiz-adv-x="1696" 
d="M1442 772c0 174.667 -57.333 322.5 -172 443.5s-255.334 181.5 -422.001 181.5c-180 0 -323.333 -61.167 -430 -183.5s-160 -269.5 -160 -441.5c0 -174.667 56.667 -322.5 170 -443.5s253.333 -181.5 420 -181.5s307.334 60.667 422.001 182s172 269 172 443zM1634 772
c0 -225.333 -76.167 -415.833 -228.5 -571.5s-338.166 -233.5 -557.499 -233.5c-218 0 -403.667 78.167 -557 234.5s-230 346.5 -230 570.5c0 227.333 75.833 418.333 227.5 573s338.167 232 559.5 232s407.666 -77.333 558.999 -232s227 -345.667 227 -573zM1139 1737
l-59 -76l-232 191l-231 -191l-60 76l291 289z" />
    <glyph glyph-name="Otilde" unicode="&#xd5;" horiz-adv-x="1696" 
d="M1442 772c0 174.667 -57.333 322.5 -172 443.5s-255.334 181.5 -422.001 181.5c-180 0 -323.333 -61.167 -430 -183.5s-160 -269.5 -160 -441.5c0 -174.667 56.667 -322.5 170 -443.5s253.333 -181.5 420 -181.5s307.334 60.667 422.001 182s172 269 172 443zM1634 772
c0 -225.333 -76.167 -415.833 -228.5 -571.5s-338.166 -233.5 -557.499 -233.5c-218 0 -403.667 78.167 -557 234.5s-230 346.5 -230 570.5c0 227.333 75.833 418.333 227.5 573s338.167 232 559.5 232s407.666 -77.333 558.999 -232s227 -345.667 227 -573zM1184 1868
c-21.333 -54 -49.168 -94.832 -83.501 -122.499s-73.5 -41.5 -117.5 -41.5c-22 0 -45 4.33301 -69 13s-51 22.334 -81 41.001l-11 7c-53.333 33.333 -91 50 -113 50c-26 0 -47.5 -6.33301 -64.5 -19s-33.833 -36.334 -50.5 -71.001l-80 49c22.667 54 50.5 94.5 83.5 121.5
s71.5 40.5 115.5 40.5c22 0 45 -4.33301 69 -13s51 -22.334 81 -41.001v0c58.667 -38 100.334 -57 125.001 -57c26 0 47.333 6 64 18s34 36 52 72z" />
    <glyph glyph-name="Odieresis" unicode="&#xd6;" horiz-adv-x="1696" 
d="M1442 772c0 174.667 -57.333 322.5 -172 443.5s-255.334 181.5 -422.001 181.5c-180 0 -323.333 -61.167 -430 -183.5s-160 -269.5 -160 -441.5c0 -174.667 56.667 -322.5 170 -443.5s253.333 -181.5 420 -181.5s307.334 60.667 422.001 182s172 269 172 443zM1634 772
c0 -225.333 -76.167 -415.833 -228.5 -571.5s-338.166 -233.5 -557.499 -233.5c-218 0 -403.667 78.167 -557 234.5s-230 346.5 -230 570.5c0 227.333 75.833 418.333 227.5 573s338.167 232 559.5 232s407.666 -77.333 558.999 -232s227 -345.667 227 -573zM756 1825
c0 -29.333 -9.83398 -53.666 -29.501 -72.999s-43.834 -29 -72.501 -29c-29.333 0 -54.166 9.83301 -74.499 29.5s-30.5 43.834 -30.5 72.501c0 27.333 10.5 51.166 31.5 71.499s45.5 30.5 73.5 30.5c28.667 0 52.834 -9.83301 72.501 -29.5s29.5 -43.834 29.5 -72.501z
M1147 1825c0 -29.333 -9.66992 -53.666 -29.0029 -72.999s-43.666 -29 -72.999 -29s-54.166 9.83301 -74.499 29.5s-30.5 43.834 -30.5 72.501c0 27.333 10.5 51.166 31.5 71.499s45.5 30.5 73.5 30.5c28.667 0 52.834 -9.83301 72.501 -29.5s29.5 -43.834 29.5 -72.501z
" />
    <glyph glyph-name="multiply" unicode="&#xd7;" 
d="M1100 154l-103 -103l-407 406l-387 -389l-101 100l390 389l-406 404l102 102l406 -404l389 390l100 -101l-391 -389z" />
    <glyph glyph-name="Oslash" unicode="&#xd8;" horiz-adv-x="1696" 
d="M1442 772c0 70.667 -10.501 138.833 -31.501 204.5s-51.5 125.834 -91.5 180.501l-858 -860c52.667 -48.667 112 -85.834 178 -111.501s135.667 -38.5 209 -38.5c166.667 0 307.334 60.667 422.001 182s172 269 172 443zM1237 1247
c-54 48.667 -114.333 85.8311 -181 111.498s-136 38.5 -208 38.5c-180 0 -323.333 -61.167 -430 -183.5s-160 -269.5 -160 -441.5c0 -69.333 10.333 -136.666 31 -201.999s50.667 -125.666 90 -180.999zM1651 1491l-197.003 -199.002
c58.667 -72.667 103.334 -153.167 134.001 -241.5s46 -181.166 46 -278.499c0 -225.333 -76.167 -415.833 -228.5 -571.5s-338.166 -233.5 -557.499 -233.5c-95.333 0 -187.666 17.167 -276.999 51.5s-170.333 83.5 -243 147.5l-197 -199l-86 86l199 201
c-59.333 72.667 -104.666 153.334 -135.999 242.001s-47 180.667 -47 276c0 227.333 75.833 418.333 227.5 573s338.167 232 559.5 232c97.333 0 190.666 -16.833 279.999 -50.5s169.333 -82.5 240 -146.5l197 197z" />
    <glyph glyph-name="Ugrave" unicode="&#xd9;" horiz-adv-x="1370" 
d="M1227 580c0 -206 -44.666 -359.667 -133.999 -461s-225 -152 -407 -152c-180.667 0 -316.334 51.333 -407.001 154s-136 255.667 -136 459v964h193v-1003c0 -132 29 -230.667 87 -296s145.667 -98 263 -98c118 0 205.5 32.333 262.5 97s85.5 163.667 85.5 297v1003h193
v-964zM811.001 1735l-66 -74l-307 260l90 109z" />
    <glyph glyph-name="Uacute" unicode="&#xda;" horiz-adv-x="1370" 
d="M1227 580c0 -206 -44.666 -359.667 -133.999 -461s-225 -152 -407 -152c-180.667 0 -316.334 51.333 -407.001 154s-136 255.667 -136 459v964h193v-1003c0 -132 29 -230.667 87 -296s145.667 -98 263 -98c118 0 205.5 32.333 262.5 97s85.5 163.667 85.5 297v1003h193
v-964zM933.001 1921l-307 -260l-65 74l282 295z" />
    <glyph glyph-name="Ucircumflex" unicode="&#xdb;" horiz-adv-x="1370" 
d="M1227 580c0 -206 -44.666 -359.667 -133.999 -461s-225 -152 -407 -152c-180.667 0 -316.334 51.333 -407.001 154s-136 255.667 -136 459v964h193v-1003c0 -132 29 -230.667 87 -296s145.667 -98 263 -98c118 0 205.5 32.333 262.5 97s85.5 163.667 85.5 297v1003h193
v-964zM977.001 1737l-59 -76l-232 191l-231 -191l-60 76l291 289z" />
    <glyph glyph-name="Udieresis" unicode="&#xdc;" horiz-adv-x="1370" 
d="M1227 580c0 -206 -44.666 -359.667 -133.999 -461s-225 -152 -407 -152c-180.667 0 -316.334 51.333 -407.001 154s-136 255.667 -136 459v964h193v-1003c0 -132 29 -230.667 87 -296s145.667 -98 263 -98c118 0 205.5 32.333 262.5 97s85.5 163.667 85.5 297v1003h193
v-964zM594.001 1825c0 -29.333 -9.83398 -53.666 -29.501 -72.999s-43.834 -29 -72.501 -29c-29.333 0 -54.166 9.83301 -74.499 29.5s-30.5 43.834 -30.5 72.501c0 27.333 10.5 51.166 31.5 71.499s45.5 30.5 73.5 30.5c28.667 0 52.834 -9.83301 72.501 -29.5
s29.5 -43.834 29.5 -72.501zM985 1825c0 -29.333 -9.66992 -53.666 -29.0029 -72.999s-43.666 -29 -72.999 -29s-54.166 9.83301 -74.499 29.5s-30.5 43.834 -30.5 72.501c0 27.333 10.5 51.166 31.5 71.499s45.5 30.5 73.5 30.5c28.667 0 52.834 -9.83301 72.501 -29.5
s29.5 -43.834 29.5 -72.501z" />
    <glyph glyph-name="Yacute" unicode="&#xdd;" horiz-adv-x="1174" 
d="M1167 1544l-481 -839v-705h-192v705l-488 839h217l371 -665l358 665h215zM835 1921l-307 -260l-65 74l282 295z" />
    <glyph glyph-name="Thorn" unicode="&#xde;" horiz-adv-x="1014" 
d="M760 788c0 90.667 -27.333 156.5 -82 197.5s-144 61.5 -268 61.5h-74v-515h74c128.667 0 219.167 19.833 271.5 59.5s78.5 105.167 78.5 196.5zM952 788c0 -140.667 -47 -248.5 -141 -323.5s-229 -112.5 -405 -112.5h-70v-352h-193v1544h193v-317h70
c182 0 318.5 -36.667 409.5 -110s136.5 -183 136.5 -329z" />
    <glyph glyph-name="germandbls" unicode="&#xdf;" horiz-adv-x="1188" 
d="M1122 514c0 -164 -48.832 -296.165 -146.499 -396.498s-229.5 -150.5 -395.5 -150.5c-7.33301 0 -20.666 0.833008 -39.999 2.5s-32 3.16699 -38 4.5v161c6 -0.666992 18 -1.5 36 -2.5s31.333 -1.5 40 -1.5c113.333 0 201.666 33.833 264.999 101.5
s95 160.834 95 279.501c0 114 -39.333 205 -118 273s-184.667 102 -318 102v155c85.333 0 155.166 24 209.499 72s81.5 111 81.5 189c0 73.333 -22.167 133.166 -66.5 179.499s-99.5 69.5 -165.5 69.5c-74.667 0 -130.5 -21.333 -167.5 -64s-55.5 -107.334 -55.5 -194.001
v-1294h-184v795h-113v163h113v342c0 130.667 35.167 232.667 105.5 306s166.833 110 289.5 110c124 0 226.333 -39 307 -117s121 -176.667 121 -296c0 -76.667 -18.5 -143.334 -55.5 -200.001s-88.833 -96.667 -155.5 -120c107.333 -21.333 193.5 -75 258.5 -161
s97.5 -188.667 97.5 -308z" />
    <glyph glyph-name="agrave" unicode="&#xe0;" horiz-adv-x="1139" 
d="M821 489c0 102 -26.002 181.833 -78.002 239.5s-123 86.5 -213 86.5c-89.333 0 -160.666 -29.833 -213.999 -89.5s-80 -140.5 -80 -242.5c0 -102.667 26.333 -185 79 -247s122.334 -93 209.001 -93c88 0 159.5 32 214.5 96s82.5 147.333 82.5 250zM1006 0
l-184.998 0.000976562v150c-31.333 -60.667 -74 -106.334 -128 -137.001s-119 -46 -195 -46c-132.667 0 -240.334 48 -323.001 144s-124 220.667 -124 374c0 150.667 41.5 272.667 124.5 366s191.833 140 326.5 140c71.333 0 133.666 -14.167 186.999 -42.5
s97.333 -70.833 132 -127.5v137h185v-958zM672 1149l-66 -74l-307 260l90 109z" />
    <glyph glyph-name="aacute" unicode="&#xe1;" horiz-adv-x="1139" 
d="M821 489c0 102 -26.002 181.833 -78.002 239.5s-123 86.5 -213 86.5c-89.333 0 -160.666 -29.833 -213.999 -89.5s-80 -140.5 -80 -242.5c0 -102.667 26.333 -185 79 -247s122.334 -93 209.001 -93c88 0 159.5 32 214.5 96s82.5 147.333 82.5 250zM1006 0
l-184.998 0.000976562v150c-31.333 -60.667 -74 -106.334 -128 -137.001s-119 -46 -195 -46c-132.667 0 -240.334 48 -323.001 144s-124 220.667 -124 374c0 150.667 41.5 272.667 124.5 366s191.833 140 326.5 140c71.333 0 133.666 -14.167 186.999 -42.5
s97.333 -70.833 132 -127.5v137h185v-958zM794 1335l-307 -260l-65 74l282 295z" />
    <glyph glyph-name="acircumflex" unicode="&#xe2;" horiz-adv-x="1139" 
d="M821 489c0 102 -26.002 181.833 -78.002 239.5s-123 86.5 -213 86.5c-89.333 0 -160.666 -29.833 -213.999 -89.5s-80 -140.5 -80 -242.5c0 -102.667 26.333 -185 79 -247s122.334 -93 209.001 -93c88 0 159.5 32 214.5 96s82.5 147.333 82.5 250zM1006 0
l-184.998 0.000976562v150c-31.333 -60.667 -74 -106.334 -128 -137.001s-119 -46 -195 -46c-132.667 0 -240.334 48 -323.001 144s-124 220.667 -124 374c0 150.667 41.5 272.667 124.5 366s191.833 140 326.5 140c71.333 0 133.666 -14.167 186.999 -42.5
s97.333 -70.833 132 -127.5v137h185v-958zM838 1151l-59 -76l-232 191l-231 -191l-60 76l291 289z" />
    <glyph glyph-name="atilde" unicode="&#xe3;" horiz-adv-x="1139" 
d="M821 489c0 102 -26.002 181.833 -78.002 239.5s-123 86.5 -213 86.5c-89.333 0 -160.666 -29.833 -213.999 -89.5s-80 -140.5 -80 -242.5c0 -102.667 26.333 -185 79 -247s122.334 -93 209.001 -93c88 0 159.5 32 214.5 96s82.5 147.333 82.5 250zM1006 0
l-184.998 0.000976562v150c-31.333 -60.667 -74 -106.334 -128 -137.001s-119 -46 -195 -46c-132.667 0 -240.334 48 -323.001 144s-124 220.667 -124 374c0 150.667 41.5 272.667 124.5 366s191.833 140 326.5 140c71.333 0 133.666 -14.167 186.999 -42.5
s97.333 -70.833 132 -127.5v137h185v-958zM883 1282c-21.333 -54 -49.168 -94.832 -83.501 -122.499s-73.5 -41.5 -117.5 -41.5c-22 0 -45 4.33301 -69 13s-51 22.334 -81 41.001l-11 7c-53.333 33.333 -91 50 -113 50c-26 0 -47.5 -6.33301 -64.5 -19
s-33.833 -36.334 -50.5 -71.001l-80 49c22.667 54 50.5 94.5 83.5 121.5s71.5 40.5 115.5 40.5c22 0 45 -4.33301 69 -13s51 -22.334 81 -41.001v0c58.667 -38 100.334 -57 125.001 -57c26 0 47.333 6 64 18s34 36 52 72z" />
    <glyph glyph-name="adieresis" unicode="&#xe4;" horiz-adv-x="1139" 
d="M821 489c0 102 -26.002 181.833 -78.002 239.5s-123 86.5 -213 86.5c-89.333 0 -160.666 -29.833 -213.999 -89.5s-80 -140.5 -80 -242.5c0 -102.667 26.333 -185 79 -247s122.334 -93 209.001 -93c88 0 159.5 32 214.5 96s82.5 147.333 82.5 250zM1006 0
l-184.998 0.000976562v150c-31.333 -60.667 -74 -106.334 -128 -137.001s-119 -46 -195 -46c-132.667 0 -240.334 48 -323.001 144s-124 220.667 -124 374c0 150.667 41.5 272.667 124.5 366s191.833 140 326.5 140c71.333 0 133.666 -14.167 186.999 -42.5
s97.333 -70.833 132 -127.5v137h185v-958zM455 1239c0 -29.333 -9.83398 -53.666 -29.501 -72.999s-43.834 -29 -72.501 -29c-29.333 0 -54.166 9.83301 -74.499 29.5s-30.5 43.834 -30.5 72.501c0 27.333 10.5 51.166 31.5 71.499s45.5 30.5 73.5 30.5
c28.667 0 52.834 -9.83301 72.501 -29.5s29.5 -43.834 29.5 -72.501zM845.999 1239c0 -29.333 -9.66992 -53.666 -29.0029 -72.999s-43.666 -29 -72.999 -29s-54.166 9.83301 -74.499 29.5s-30.5 43.834 -30.5 72.501c0 27.333 10.5 51.166 31.5 71.499s45.5 30.5 73.5 30.5
c28.667 0 52.834 -9.83301 72.501 -29.5s29.5 -43.834 29.5 -72.501z" />
    <glyph glyph-name="aring" unicode="&#xe5;" horiz-adv-x="1139" 
d="M821 489c0 102 -26.002 181.833 -78.002 239.5s-123 86.5 -213 86.5c-89.333 0 -160.666 -29.833 -213.999 -89.5s-80 -140.5 -80 -242.5c0 -102.667 26.333 -185 79 -247s122.334 -93 209.001 -93c88 0 159.5 32 214.5 96s82.5 147.333 82.5 250zM1006 0
l-184.998 0.000976562v150c-31.333 -60.667 -74 -106.334 -128 -137.001s-119 -46 -195 -46c-132.667 0 -240.334 48 -323.001 144s-124 220.667 -124 374c0 150.667 41.5 272.667 124.5 366s191.833 140 326.5 140c71.333 0 133.666 -14.167 186.999 -42.5
s97.333 -70.833 132 -127.5v137h185v-958zM692 1294c0 40.667 -14.333 75.5 -43 104.5s-62.667 43.5 -102 43.5c-40.667 0 -75.167 -14.5 -103.5 -43.5s-42.5 -63.833 -42.5 -104.5c0 -40 14.167 -74.167 42.5 -102.5s62.833 -42.5 103.5 -42.5
c40 0 74.167 14.167 102.5 42.5s42.5 62.5 42.5 102.5zM784 1294c0 -65.333 -23.167 -121.166 -69.5 -167.499s-102.166 -69.5 -167.499 -69.5s-121 23.167 -167 69.5s-69 102.166 -69 167.499c0 66 23 122.167 69 168.5s101.667 69.5 167 69.5
s121.166 -23.167 167.499 -69.5s69.5 -102.5 69.5 -168.5z" />
    <glyph glyph-name="ae" unicode="&#xe6;" horiz-adv-x="1653" 
d="M729 305c-2 13.333 -6.33105 33.001 -12.998 59.001l-3 12c-18.667 29.333 -51.334 53.5 -98.001 72.5s-96 28.5 -148 28.5c-74 0 -132.833 -16.167 -176.5 -48.5s-65.5 -75.5 -65.5 -129.5c0 -46 20.667 -83.5 62 -112.5s98.666 -43.5 171.999 -43.5
c72.667 0 130.167 12.667 172.5 38s74.833 66.666 97.5 123.999zM1427 571.001c-4.66699 78 -29.8301 138.167 -75.4971 180.5s-107.834 63.5 -186.501 63.5c-74.667 0 -135.334 -21.333 -182.001 -64s-73.334 -102.667 -80.001 -180h524zM1612.01 444.001
l-712.999 -0.00195312c4 -98.667 29.333 -173.5 76 -224.5s113 -76.5 199 -76.5c63.333 0 115.333 12.333 156 37s74.667 64.334 102 119.001l149 -82c-44.667 -86 -100.334 -149.167 -167.001 -189.5s-148.334 -60.5 -245.001 -60.5c-84.667 0 -157 15.333 -217 46
s-107.667 77 -143 139c-41.333 -62.667 -92.833 -109.167 -154.5 -139.5s-135.834 -45.5 -222.501 -45.5c-128 0 -225.167 27.5 -291.5 82.5s-99.5 135.5 -99.5 241.5c0 89.333 35.5 163.833 106.5 223.5s161.167 89.5 270.5 89.5c58.667 0 113.834 -8.33301 165.501 -25
s95.5 -40.334 131.5 -71.001v61c0 78 -25.5 138.5 -76.5 181.5s-123.833 64.5 -218.5 64.5c-54.667 0 -107 -7.5 -157 -22.5s-97.333 -37.5 -142 -67.5v190c41.333 26.667 87 46 137 58s108.667 18 176 18c100 0 180.833 -14.667 242.5 -44
s107.834 -74.666 138.501 -135.999c34.667 60.667 81 105.834 139 135.501s129 44.5 213 44.5c134.667 0 242.5 -43.5 323.5 -130.5s121.5 -203.167 121.5 -348.5v-68z" />
    <glyph glyph-name="ccedilla" unicode="&#xe7;" horiz-adv-x="903" 
d="M852 35c-42.667 -23.333 -86.8311 -40.498 -132.498 -51.498s-96.5 -16.5 -152.5 -16.5c-153.333 0 -277.666 47.167 -372.999 141.5s-143 217.166 -143 368.499c0 153.333 48.667 277.333 146 372s225.666 142 384.999 142c49.333 0 94.5 -5.16699 135.5 -15.5
s82.5 -26.833 124.5 -49.5v-197c-37.333 27.333 -77.833 48.5 -121.5 63.5s-87.167 22.5 -130.5 22.5c-108.667 0 -194.834 -30.833 -258.501 -92.5s-95.5 -144.834 -95.5 -249.501c0 -100 32.167 -180 96.5 -240s150.166 -90 257.499 -90c49.333 0 96.5 7.66699 141.5 23
s85.167 37 120.5 65v-196zM700.003 -112.998l-238 -319l-81 57l200 342z" />
    <glyph glyph-name="egrave" unicode="&#xe8;" horiz-adv-x="999" 
d="M776 571c-8 79.333 -35 139.833 -81 181.5s-108.333 62.5 -187 62.5c-75.333 0 -137.5 -21.5 -186.5 -64.5s-78.5 -102.833 -88.5 -179.5h543zM958 444l-729.001 0.000976562c7.33301 -98 35.166 -172.667 83.499 -224s115.5 -77 201.5 -77
c65.333 0 119.333 12.667 162 38s77.334 64.666 104.001 117.999l154 -82c-44 -84 -100.667 -146.667 -170 -188s-153.333 -62 -252 -62c-143.333 0 -257 47 -341 141s-126 219.667 -126 377c0 146 44.167 266.833 132.5 362.5s198.5 143.5 330.5 143.5
c134.667 0 243.334 -43.833 326.001 -131.5s124 -203.5 124 -347.5v-68zM624.999 1149l-66 -74l-307 260l90 109z" />
    <glyph glyph-name="eacute" unicode="&#xe9;" horiz-adv-x="999" 
d="M776 571c-8 79.333 -35 139.833 -81 181.5s-108.333 62.5 -187 62.5c-75.333 0 -137.5 -21.5 -186.5 -64.5s-78.5 -102.833 -88.5 -179.5h543zM958 444l-729.001 0.000976562c7.33301 -98 35.166 -172.667 83.499 -224s115.5 -77 201.5 -77
c65.333 0 119.333 12.667 162 38s77.334 64.666 104.001 117.999l154 -82c-44 -84 -100.667 -146.667 -170 -188s-153.333 -62 -252 -62c-143.333 0 -257 47 -341 141s-126 219.667 -126 377c0 146 44.167 266.833 132.5 362.5s198.5 143.5 330.5 143.5
c134.667 0 243.334 -43.833 326.001 -131.5s124 -203.5 124 -347.5v-68zM746.999 1335l-307 -260l-65 74l282 295z" />
    <glyph glyph-name="ecircumflex" unicode="&#xea;" horiz-adv-x="999" 
d="M776 571c-8 79.333 -35 139.833 -81 181.5s-108.333 62.5 -187 62.5c-75.333 0 -137.5 -21.5 -186.5 -64.5s-78.5 -102.833 -88.5 -179.5h543zM958 444l-729.001 0.000976562c7.33301 -98 35.166 -172.667 83.499 -224s115.5 -77 201.5 -77
c65.333 0 119.333 12.667 162 38s77.334 64.666 104.001 117.999l154 -82c-44 -84 -100.667 -146.667 -170 -188s-153.333 -62 -252 -62c-143.333 0 -257 47 -341 141s-126 219.667 -126 377c0 146 44.167 266.833 132.5 362.5s198.5 143.5 330.5 143.5
c134.667 0 243.334 -43.833 326.001 -131.5s124 -203.5 124 -347.5v-68zM789.999 1151l-59 -76l-232 191l-231 -191l-60 76l291 289z" />
    <glyph glyph-name="edieresis" unicode="&#xeb;" horiz-adv-x="999" 
d="M776 571c-8 79.333 -35 139.833 -81 181.5s-108.333 62.5 -187 62.5c-75.333 0 -137.5 -21.5 -186.5 -64.5s-78.5 -102.833 -88.5 -179.5h543zM958 444l-729.001 0.000976562c7.33301 -98 35.166 -172.667 83.499 -224s115.5 -77 201.5 -77
c65.333 0 119.333 12.667 162 38s77.334 64.666 104.001 117.999l154 -82c-44 -84 -100.667 -146.667 -170 -188s-153.333 -62 -252 -62c-143.333 0 -257 47 -341 141s-126 219.667 -126 377c0 146 44.167 266.833 132.5 362.5s198.5 143.5 330.5 143.5
c134.667 0 243.334 -43.833 326.001 -131.5s124 -203.5 124 -347.5v-68zM406.999 1239c0 -29.333 -9.83398 -53.666 -29.501 -72.999s-43.834 -29 -72.501 -29c-29.333 0 -54.166 9.83301 -74.499 29.5s-30.5 43.834 -30.5 72.501c0 27.333 10.5 51.166 31.5 71.499
s45.5 30.5 73.5 30.5c28.667 0 52.834 -9.83301 72.501 -29.5s29.5 -43.834 29.5 -72.501zM797.998 1239c0 -29.333 -9.66992 -53.666 -29.0029 -72.999s-43.666 -29 -72.999 -29s-54.166 9.83301 -74.499 29.5s-30.5 43.834 -30.5 72.501c0 27.333 10.5 51.166 31.5 71.499
s45.5 30.5 73.5 30.5c28.667 0 52.834 -9.83301 72.501 -29.5s29.5 -43.834 29.5 -72.501z" />
    <glyph glyph-name="igrave" unicode="&#xec;" horiz-adv-x="520" 
d="M352 0h-184v958h184v-958zM385 1149l-66 -74l-307 260l90 109z" />
    <glyph glyph-name="iacute" unicode="&#xed;" horiz-adv-x="520" 
d="M352 0h-184v958h184v-958zM507 1335l-307 -260l-65 74l282 295z" />
    <glyph glyph-name="icircumflex" unicode="&#xee;" horiz-adv-x="520" 
d="M352 0h-184v958h184v-958zM551 1151l-59 -76l-232 191l-231 -191l-60 76l291 289z" />
    <glyph glyph-name="idieresis" unicode="&#xef;" horiz-adv-x="520" 
d="M352 0h-184v958h184v-958zM168 1239c0 -29.333 -9.83398 -53.666 -29.501 -72.999s-43.834 -29 -72.501 -29c-29.333 0 -54.166 9.83301 -74.499 29.5s-30.5 43.834 -30.5 72.501c0 27.333 10.5 51.166 31.5 71.499s45.5 30.5 73.5 30.5
c28.667 0 52.834 -9.83301 72.501 -29.5s29.5 -43.834 29.5 -72.501zM558.999 1239c0 -29.333 -9.66992 -53.666 -29.0029 -72.999s-43.666 -29 -72.999 -29s-54.166 9.83301 -74.499 29.5s-30.5 43.834 -30.5 72.501c0 27.333 10.5 51.166 31.5 71.499s45.5 30.5 73.5 30.5
c28.667 0 52.834 -9.83301 72.501 -29.5s29.5 -43.834 29.5 -72.501z" />
    <glyph glyph-name="eth" unicode="&#xf0;" horiz-adv-x="1106" 
d="M877 483c0 96.667 -30.833 176.167 -92.5 238.5s-138.834 93.5 -231.501 93.5c-94 0 -171.5 -31 -232.5 -93s-91.5 -141.667 -91.5 -239c0 -98.667 30.833 -180 92.5 -244s138.834 -96 231.501 -96c94 0 171.5 32 232.5 96s91.5 145.333 91.5 244zM1061 537
c0 -167.333 -48.001 -304.171 -144.001 -410.504s-218 -159.5 -366 -159.5c-142.667 0 -262.667 49.833 -360 149.5s-146 221.834 -146 366.501s48.333 265.5 145 362.5s217 145.5 361 145.5c54.667 0 106.334 -9 155.001 -27s89 -43 121 -75
c-22 80.667 -59.5 161.334 -112.5 242.001s-118.5 156.334 -196.5 227.001l-311 -176l-53 98l272 156c-34.667 26.667 -71.5 52.334 -110.5 77.001s-79.833 48 -122.5 70l79 129c62.667 -29.333 120.667 -60.5 174 -93.5s102 -68.167 146 -105.5l280 162l52 -98l-246 -143
c124.667 -121.333 219.667 -258.5 285 -411.5s98 -314.833 98 -485.5z" />
    <glyph glyph-name="ntilde" unicode="&#xf1;" horiz-adv-x="1071" 
d="M944 0l-184.001 0.00195312v567c0 89.333 -16 155 -48 197s-82.333 63 -151 63c-78 0 -138.167 -31.333 -180.5 -94s-63.5 -153.334 -63.5 -272.001v-461h-184v958h184v-135c28.667 55.333 68.834 97.166 120.501 125.499s114.167 42.5 187.5 42.5
c99.333 0 177.333 -33 234 -99s85 -158.667 85 -278v-614zM871.999 1282c-21.333 -54 -49.168 -94.832 -83.501 -122.499s-73.5 -41.5 -117.5 -41.5c-22 0 -45 4.33301 -69 13s-51 22.334 -81 41.001l-11 7c-53.333 33.333 -91 50 -113 50c-26 0 -47.5 -6.33301 -64.5 -19
s-33.833 -36.334 -50.5 -71.001l-80 49c22.667 54 50.5 94.5 83.5 121.5s71.5 40.5 115.5 40.5c22 0 45 -4.33301 69 -13s51 -22.334 81 -41.001v0c58.667 -38 100.334 -57 125.001 -57c26 0 47.333 6 64 18s34 36 52 72z" />
    <glyph glyph-name="ograve" unicode="&#xf2;" horiz-adv-x="1106" 
d="M877 483c0 96.667 -30.833 176.167 -92.5 238.5s-138.834 93.5 -231.501 93.5c-94 0 -171.5 -31 -232.5 -93s-91.5 -141.667 -91.5 -239c0 -98.667 30.833 -180 92.5 -244s138.834 -96 231.501 -96c94 0 171.5 32 232.5 96s91.5 145.333 91.5 244zM1061 483
c0 -144 -49.1689 -266.001 -147.502 -366.001s-219.166 -150 -362.499 -150c-142.667 0 -262.667 49.833 -360 149.5s-146 221.834 -146 366.501s48.333 265.5 145 362.5s217 145.5 361 145.5c144.667 0 265.834 -48.833 363.501 -146.5s146.5 -218.167 146.5 -361.5z
M677.998 1149l-66 -74l-307 260l90 109z" />
    <glyph glyph-name="oacute" unicode="&#xf3;" horiz-adv-x="1106" 
d="M877 483c0 96.667 -30.833 176.167 -92.5 238.5s-138.834 93.5 -231.501 93.5c-94 0 -171.5 -31 -232.5 -93s-91.5 -141.667 -91.5 -239c0 -98.667 30.833 -180 92.5 -244s138.834 -96 231.501 -96c94 0 171.5 32 232.5 96s91.5 145.333 91.5 244zM1061 483
c0 -144 -49.1689 -266.001 -147.502 -366.001s-219.166 -150 -362.499 -150c-142.667 0 -262.667 49.833 -360 149.5s-146 221.834 -146 366.501s48.333 265.5 145 362.5s217 145.5 361 145.5c144.667 0 265.834 -48.833 363.501 -146.5s146.5 -218.167 146.5 -361.5z
M799.998 1335l-307 -260l-65 74l282 295z" />
    <glyph glyph-name="ocircumflex" unicode="&#xf4;" horiz-adv-x="1106" 
d="M877 483c0 96.667 -30.833 176.167 -92.5 238.5s-138.834 93.5 -231.501 93.5c-94 0 -171.5 -31 -232.5 -93s-91.5 -141.667 -91.5 -239c0 -98.667 30.833 -180 92.5 -244s138.834 -96 231.501 -96c94 0 171.5 32 232.5 96s91.5 145.333 91.5 244zM1061 483
c0 -144 -49.1689 -266.001 -147.502 -366.001s-219.166 -150 -362.499 -150c-142.667 0 -262.667 49.833 -360 149.5s-146 221.834 -146 366.501s48.333 265.5 145 362.5s217 145.5 361 145.5c144.667 0 265.834 -48.833 363.501 -146.5s146.5 -218.167 146.5 -361.5z
M843.998 1151l-59 -76l-232 191l-231 -191l-60 76l291 289z" />
    <glyph glyph-name="otilde" unicode="&#xf5;" horiz-adv-x="1106" 
d="M877 483c0 96.667 -30.833 176.167 -92.5 238.5s-138.834 93.5 -231.501 93.5c-94 0 -171.5 -31 -232.5 -93s-91.5 -141.667 -91.5 -239c0 -98.667 30.833 -180 92.5 -244s138.834 -96 231.501 -96c94 0 171.5 32 232.5 96s91.5 145.333 91.5 244zM1061 483
c0 -144 -49.1689 -266.001 -147.502 -366.001s-219.166 -150 -362.499 -150c-142.667 0 -262.667 49.833 -360 149.5s-146 221.834 -146 366.501s48.333 265.5 145 362.5s217 145.5 361 145.5c144.667 0 265.834 -48.833 363.501 -146.5s146.5 -218.167 146.5 -361.5z
M888.998 1282c-21.333 -54 -49.168 -94.832 -83.501 -122.499s-73.5 -41.5 -117.5 -41.5c-22 0 -45 4.33301 -69 13s-51 22.334 -81 41.001l-11 7c-53.333 33.333 -91 50 -113 50c-26 0 -47.5 -6.33301 -64.5 -19s-33.833 -36.334 -50.5 -71.001l-80 49
c22.667 54 50.5 94.5 83.5 121.5s71.5 40.5 115.5 40.5c22 0 45 -4.33301 69 -13s51 -22.334 81 -41.001v0c58.667 -38 100.334 -57 125.001 -57c26 0 47.333 6 64 18s34 36 52 72z" />
    <glyph glyph-name="odieresis" unicode="&#xf6;" horiz-adv-x="1106" 
d="M877 483c0 96.667 -30.833 176.167 -92.5 238.5s-138.834 93.5 -231.501 93.5c-94 0 -171.5 -31 -232.5 -93s-91.5 -141.667 -91.5 -239c0 -98.667 30.833 -180 92.5 -244s138.834 -96 231.501 -96c94 0 171.5 32 232.5 96s91.5 145.333 91.5 244zM1061 483
c0 -144 -49.1689 -266.001 -147.502 -366.001s-219.166 -150 -362.499 -150c-142.667 0 -262.667 49.833 -360 149.5s-146 221.834 -146 366.501s48.333 265.5 145 362.5s217 145.5 361 145.5c144.667 0 265.834 -48.833 363.501 -146.5s146.5 -218.167 146.5 -361.5z
M460.998 1239c0 -29.333 -9.83398 -53.666 -29.501 -72.999s-43.834 -29 -72.501 -29c-29.333 0 -54.166 9.83301 -74.499 29.5s-30.5 43.834 -30.5 72.501c0 27.333 10.5 51.166 31.5 71.499s45.5 30.5 73.5 30.5c28.667 0 52.834 -9.83301 72.501 -29.5
s29.5 -43.834 29.5 -72.501zM851.997 1239c0 -29.333 -9.66992 -53.666 -29.0029 -72.999s-43.666 -29 -72.999 -29s-54.166 9.83301 -74.499 29.5s-30.5 43.834 -30.5 72.501c0 27.333 10.5 51.166 31.5 71.499s45.5 30.5 73.5 30.5c28.667 0 52.834 -9.83301 72.501 -29.5
s29.5 -43.834 29.5 -72.501z" />
    <glyph glyph-name="divide" unicode="&#xf7;" 
d="M711 203c0 -32 -11.666 -59.501 -34.999 -82.501s-51.333 -34.5 -84 -34.5s-60.334 11.333 -83.001 34s-34 50.334 -34 83.001s11.5 60.667 34.5 84s50.5 35 82.5 35s59.833 -11.833 83.5 -35.5s35.5 -51.5 35.5 -83.5zM1128 486.999h-1071v142h1071v-142z
M711.001 910.999c0 -32 -11.666 -59.333 -34.999 -82s-51.333 -34 -84 -34s-60.334 11.167 -83.001 33.5s-34 49.833 -34 82.5s11.5 60.667 34.5 84s50.5 35 82.5 35s59.833 -11.667 83.5 -35s35.5 -51.333 35.5 -84z" />
    <glyph glyph-name="oslash" unicode="&#xf8;" horiz-adv-x="1106" 
d="M877 483c0 37.333 -5.16797 72.833 -15.501 106.5s-25.166 64.5 -44.499 92.5l-467 -469c28 -22.667 59.333 -40 94 -52s71 -18 109 -18c94 0 171.5 32 232.5 96s91.5 145.333 91.5 244zM755.999 748c-28.667 22 -60.167 38.667 -94.5 50s-70.5 17 -108.5 17
c-94 0 -171.5 -31 -232.5 -93s-91.5 -141.667 -91.5 -239c0 -37.333 5 -73 15 -107s25 -65.667 45 -95zM1065 928l-119 -119.002c37.333 -46 65.833 -96.667 85.5 -152s29.5 -113.333 29.5 -174c0 -144 -49.167 -266 -147.5 -366s-219.166 -150 -362.499 -150
c-60.667 0 -118.834 10.167 -174.501 30.5s-106.834 49.833 -153.501 88.5l-117 -119l-63 66l117 119c-37.333 46.667 -65.833 98.334 -85.5 155.001s-29.5 115.334 -29.5 176.001c0 144.667 48.333 265.5 145 362.5s217 145.5 361 145.5c62.667 0 122.334 -10 179.001 -30
s107.667 -49 153 -87l118 117z" />
    <glyph glyph-name="ugrave" unicode="&#xf9;" horiz-adv-x="1049" 
d="M920 418c0 -153.333 -32.332 -266.833 -96.999 -340.5s-164.334 -110.5 -299.001 -110.5c-136.667 0 -236.667 36.167 -300 108.5s-95 186.5 -95 342.5v540h184v-540c0 -96.667 16 -166.667 48 -210s86.333 -65 163 -65c76 0 130.167 21.667 162.5 65
s48.5 113.333 48.5 210v540h185v-540zM650.001 1149l-66 -74l-307 260l90 109z" />
    <glyph glyph-name="uacute" unicode="&#xfa;" horiz-adv-x="1049" 
d="M920 418c0 -153.333 -32.332 -266.833 -96.999 -340.5s-164.334 -110.5 -299.001 -110.5c-136.667 0 -236.667 36.167 -300 108.5s-95 186.5 -95 342.5v540h184v-540c0 -96.667 16 -166.667 48 -210s86.333 -65 163 -65c76 0 130.167 21.667 162.5 65
s48.5 113.333 48.5 210v540h185v-540zM772.001 1335l-307 -260l-65 74l282 295z" />
    <glyph glyph-name="ucircumflex" unicode="&#xfb;" horiz-adv-x="1049" 
d="M920 418c0 -153.333 -32.332 -266.833 -96.999 -340.5s-164.334 -110.5 -299.001 -110.5c-136.667 0 -236.667 36.167 -300 108.5s-95 186.5 -95 342.5v540h184v-540c0 -96.667 16 -166.667 48 -210s86.333 -65 163 -65c76 0 130.167 21.667 162.5 65
s48.5 113.333 48.5 210v540h185v-540zM815.001 1151l-59 -76l-232 191l-231 -191l-60 76l291 289z" />
    <glyph glyph-name="udieresis" unicode="&#xfc;" horiz-adv-x="1049" 
d="M920 418c0 -153.333 -32.332 -266.833 -96.999 -340.5s-164.334 -110.5 -299.001 -110.5c-136.667 0 -236.667 36.167 -300 108.5s-95 186.5 -95 342.5v540h184v-540c0 -96.667 16 -166.667 48 -210s86.333 -65 163 -65c76 0 130.167 21.667 162.5 65
s48.5 113.333 48.5 210v540h185v-540zM432.001 1239c0 -29.333 -9.83398 -53.666 -29.501 -72.999s-43.834 -29 -72.501 -29c-29.333 0 -54.166 9.83301 -74.499 29.5s-30.5 43.834 -30.5 72.501c0 27.333 10.5 51.166 31.5 71.499s45.5 30.5 73.5 30.5
c28.667 0 52.834 -9.83301 72.501 -29.5s29.5 -43.834 29.5 -72.501zM823 1239c0 -29.333 -9.66992 -53.666 -29.0029 -72.999s-43.666 -29 -72.999 -29s-54.166 9.83301 -74.499 29.5s-30.5 43.834 -30.5 72.501c0 27.333 10.5 51.166 31.5 71.499s45.5 30.5 73.5 30.5
c28.667 0 52.834 -9.83301 72.501 -29.5s29.5 -43.834 29.5 -72.501z" />
    <glyph glyph-name="yacute" unicode="&#xfd;" horiz-adv-x="991" 
d="M983 958l-612 -1490h-203l244 573l-404 917h201l297 -706l274 706h203zM743 1335l-307 -260l-65 74l282 295z" />
    <glyph glyph-name="thorn" unicode="&#xfe;" horiz-adv-x="1139" 
d="M903 483c0 102 -26.666 182.833 -79.999 242.5s-125 89.5 -215 89.5s-161 -28.833 -213 -86.5s-78 -137.5 -78 -239.5c0 -102.667 27.667 -186 83 -250s126.666 -96 213.999 -96c86.667 0 156.5 31 209.5 93s79.5 144.333 79.5 247zM1087 485
c0 -153.333 -41.1689 -278.001 -123.502 -374.001s-189.833 -144 -322.5 -144c-76 0 -141.167 15.333 -195.5 46s-97.166 76.334 -128.499 137.001v-682h-184v2222h184v-869c35.333 56.667 79.5 99.167 132.5 127.5s115.5 42.5 187.5 42.5
c134.667 0 243.334 -46.667 326.001 -140s124 -215.333 124 -366z" />
    <glyph glyph-name="ydieresis" unicode="&#xff;" horiz-adv-x="991" 
d="M983 958l-612 -1490h-203l244 573l-404 917h201l297 -706l274 706h203zM403 1239c0 -29.333 -9.83398 -53.666 -29.501 -72.999s-43.834 -29 -72.501 -29c-29.333 0 -54.166 9.83301 -74.499 29.5s-30.5 43.834 -30.5 72.501c0 27.333 10.5 51.166 31.5 71.499
s45.5 30.5 73.5 30.5c28.667 0 52.834 -9.83301 72.501 -29.5s29.5 -43.834 29.5 -72.501zM793.999 1239c0 -29.333 -9.66992 -53.666 -29.0029 -72.999s-43.666 -29 -72.999 -29s-54.166 9.83301 -74.499 29.5s-30.5 43.834 -30.5 72.501c0 27.333 10.5 51.166 31.5 71.499
s45.5 30.5 73.5 30.5c28.667 0 52.834 -9.83301 72.501 -29.5s29.5 -43.834 29.5 -72.501z" />
    <glyph glyph-name="Amacron" unicode="&#x100;" horiz-adv-x="1440" 
d="M969 610l-248 561l-248 -561h496zM1450 0h-213l-197 446h-641l-196 -446h-213l731 1589zM997 1755h-552v125h552v-125z" />
    <glyph glyph-name="amacron" unicode="&#x101;" horiz-adv-x="1139" 
d="M821 489c0 102 -26.002 181.833 -78.002 239.5s-123 86.5 -213 86.5c-89.333 0 -160.666 -29.833 -213.999 -89.5s-80 -140.5 -80 -242.5c0 -102.667 26.333 -185 79 -247s122.334 -93 209.001 -93c88 0 159.5 32 214.5 96s82.5 147.333 82.5 250zM1006 0
l-184.998 0.000976562v150c-31.333 -60.667 -74 -106.334 -128 -137.001s-119 -46 -195 -46c-132.667 0 -240.334 48 -323.001 144s-124 220.667 -124 374c0 150.667 41.5 272.667 124.5 366s191.833 140 326.5 140c71.333 0 133.666 -14.167 186.999 -42.5
s97.333 -70.833 132 -127.5v137h185v-958zM823 1169h-552v125h552v-125z" />
    <glyph glyph-name="Abreve" unicode="&#x102;" horiz-adv-x="1440" 
d="M969 610l-248 561l-248 -561h496zM1450 0h-213l-197 446h-641l-196 -446h-213l731 1589zM1016 1942c-18.667 -86 -52.001 -149.5 -100.001 -190.5s-112.333 -61.5 -193 -61.5c-82.667 0 -149.167 21.5 -199.5 64.5s-82.166 105.5 -95.499 187.5l88 30
c12.667 -51.333 36.667 -90.333 72 -117s80.333 -40 135 -40c54 0 98 13.167 132 39.5s57.667 65.5 71 117.5z" />
    <glyph glyph-name="abreve" unicode="&#x103;" horiz-adv-x="1139" 
d="M821 489c0 102 -26.002 181.833 -78.002 239.5s-123 86.5 -213 86.5c-89.333 0 -160.666 -29.833 -213.999 -89.5s-80 -140.5 -80 -242.5c0 -102.667 26.333 -185 79 -247s122.334 -93 209.001 -93c88 0 159.5 32 214.5 96s82.5 147.333 82.5 250zM1006 0
l-184.998 0.000976562v150c-31.333 -60.667 -74 -106.334 -128 -137.001s-119 -46 -195 -46c-132.667 0 -240.334 48 -323.001 144s-124 220.667 -124 374c0 150.667 41.5 272.667 124.5 366s191.833 140 326.5 140c71.333 0 133.666 -14.167 186.999 -42.5
s97.333 -70.833 132 -127.5v137h185v-958zM842 1356c-18.667 -86 -52.001 -149.5 -100.001 -190.5s-112.333 -61.5 -193 -61.5c-82.667 0 -149.167 21.5 -199.5 64.5s-82.166 105.5 -95.499 187.5l88 30c12.667 -51.333 36.667 -90.333 72 -117s80.333 -40 135 -40
c54 0 98 13.167 132 39.5s57.667 65.5 71 117.5z" />
    <glyph glyph-name="Aogonek" unicode="&#x104;" horiz-adv-x="1440" 
d="M969 610l-248 561l-248 -561h496zM1450 -465c-105.333 0 -180.167 14.832 -224.5 44.499s-66.5 79.834 -66.5 150.501c0 43.333 13.667 89.166 41 137.499s65 92.5 113 132.5h-76l-197 446h-641l-196 -446h-213l731 1589l729 -1589h-37
c-37.333 -34.667 -66.833 -72.667 -88.5 -114s-32.5 -79.666 -32.5 -114.999c0 -40 12.333 -68.5 37 -85.5s65 -25.5 121 -25.5v-125z" />
    <glyph glyph-name="aogonek" unicode="&#x105;" horiz-adv-x="1139" 
d="M821 489c0 102 -26.002 181.833 -78.002 239.5s-123 86.5 -213 86.5c-89.333 0 -160.666 -29.833 -213.999 -89.5s-80 -140.5 -80 -242.5c0 -102.667 26.333 -185 79 -247s122.334 -93 209.001 -93c88 0 159.5 32 214.5 96s82.5 147.333 82.5 250zM1006 -465
c-105.333 0 -180.164 14.833 -224.497 44.5s-66.5 79.834 -66.5 150.501c0 43.333 13.667 89.166 41 137.499s64.666 92.5 111.999 132.5h-47v150c-31.333 -60.667 -74 -106.334 -128 -137.001s-119 -46 -195 -46c-132.667 0 -240.334 48 -323.001 144
s-124 220.667 -124 374c0 150.667 41.5 272.667 124.5 366s191.833 140 326.5 140c71.333 0 133.666 -14.167 186.999 -42.5s97.333 -70.833 132 -127.5v137h185v-958h-37c-37.333 -34.667 -66.833 -72.667 -88.5 -114s-32.5 -79.666 -32.5 -114.999
c0 -40 12.167 -68.5 36.5 -85.5s64.833 -25.5 121.5 -25.5v-125z" />
    <glyph glyph-name="Cacute" unicode="&#x106;" horiz-adv-x="1354" 
d="M1296 96c-58.667 -38 -129.001 -69 -211.001 -93s-159 -36 -231 -36c-232 0 -419.333 74.5 -562 223.5s-214 343.5 -214 583.5c0 232 72.667 423.833 218 575.5s332 227.5 560 227.5c89.333 0 169.833 -10.5 241.5 -31.5s137.834 -53.5 198.501 -97.5v-215
c-66.667 54.667 -134.5 95.667 -203.5 123s-140.167 41 -213.5 41c-179.333 0 -325.666 -58.333 -438.999 -175s-170 -266 -170 -448c0 -184 54.167 -334.5 162.5 -451.5s248.166 -175.5 419.499 -175.5c82.667 0 161 14 235 42s143.667 70 209 126v-219zM1083 1921
l-307 -260l-65 74l282 295z" />
    <glyph glyph-name="cacute" unicode="&#x107;" horiz-adv-x="903" 
d="M852 35c-42.667 -23.333 -86.8311 -40.498 -132.498 -51.498s-96.5 -16.5 -152.5 -16.5c-153.333 0 -277.666 47.167 -372.999 141.5s-143 217.166 -143 368.499c0 153.333 48.667 277.333 146 372s225.666 142 384.999 142c49.333 0 94.5 -5.16699 135.5 -15.5
s82.5 -26.833 124.5 -49.5v-197c-37.333 27.333 -77.833 48.5 -121.5 63.5s-87.167 22.5 -130.5 22.5c-108.667 0 -194.834 -30.833 -258.501 -92.5s-95.5 -144.834 -95.5 -249.501c0 -100 32.167 -180 96.5 -240s150.166 -90 257.499 -90c49.333 0 96.5 7.66699 141.5 23
s85.167 37 120.5 65v-196zM794.003 1335l-307 -260l-65 74l282 295z" />
    <glyph glyph-name="Ccircumflex" unicode="&#x108;" horiz-adv-x="1354" 
d="M1296 96c-58.667 -38 -129.001 -69 -211.001 -93s-159 -36 -231 -36c-232 0 -419.333 74.5 -562 223.5s-214 343.5 -214 583.5c0 232 72.667 423.833 218 575.5s332 227.5 560 227.5c89.333 0 169.833 -10.5 241.5 -31.5s137.834 -53.5 198.501 -97.5v-215
c-66.667 54.667 -134.5 95.667 -203.5 123s-140.167 41 -213.5 41c-179.333 0 -325.666 -58.333 -438.999 -175s-170 -266 -170 -448c0 -184 54.167 -334.5 162.5 -451.5s248.166 -175.5 419.499 -175.5c82.667 0 161 14 235 42s143.667 70 209 126v-219zM1126 1737l-59 -76
l-232 191l-231 -191l-60 76l291 289z" />
    <glyph glyph-name="ccircumflex" unicode="&#x109;" horiz-adv-x="903" 
d="M852 35c-42.667 -23.333 -86.8311 -40.498 -132.498 -51.498s-96.5 -16.5 -152.5 -16.5c-153.333 0 -277.666 47.167 -372.999 141.5s-143 217.166 -143 368.499c0 153.333 48.667 277.333 146 372s225.666 142 384.999 142c49.333 0 94.5 -5.16699 135.5 -15.5
s82.5 -26.833 124.5 -49.5v-197c-37.333 27.333 -77.833 48.5 -121.5 63.5s-87.167 22.5 -130.5 22.5c-108.667 0 -194.834 -30.833 -258.501 -92.5s-95.5 -144.834 -95.5 -249.501c0 -100 32.167 -180 96.5 -240s150.166 -90 257.499 -90c49.333 0 96.5 7.66699 141.5 23
s85.167 37 120.5 65v-196zM838.003 1151l-59 -76l-232 191l-231 -191l-60 76l291 289z" />
    <glyph glyph-name="Cdot" unicode="&#x10a;" horiz-adv-x="1354" 
d="M1296 96c-58.667 -38 -129.001 -69 -211.001 -93s-159 -36 -231 -36c-232 0 -419.333 74.5 -562 223.5s-214 343.5 -214 583.5c0 232 72.667 423.833 218 575.5s332 227.5 560 227.5c89.333 0 169.833 -10.5 241.5 -31.5s137.834 -53.5 198.501 -97.5v-215
c-66.667 54.667 -134.5 95.667 -203.5 123s-140.167 41 -213.5 41c-179.333 0 -325.666 -58.333 -438.999 -175s-170 -266 -170 -448c0 -184 54.167 -334.5 162.5 -451.5s248.166 -175.5 419.499 -175.5c82.667 0 161 14 235 42s143.667 70 209 126v-219zM941.999 1827
c0 -30.667 -10 -56 -30 -76s-45.333 -30 -76 -30c-30 0 -55.333 10.333 -76 31s-31 45.667 -31 75c0 28.667 10.667 53.667 32 75s46.333 32 75 32c29.333 0 54.333 -10.333 75 -31s31 -46 31 -76z" />
    <glyph glyph-name="cdot" unicode="&#x10b;" horiz-adv-x="903" 
d="M852 35c-42.667 -23.333 -86.8311 -40.498 -132.498 -51.498s-96.5 -16.5 -152.5 -16.5c-153.333 0 -277.666 47.167 -372.999 141.5s-143 217.166 -143 368.499c0 153.333 48.667 277.333 146 372s225.666 142 384.999 142c49.333 0 94.5 -5.16699 135.5 -15.5
s82.5 -26.833 124.5 -49.5v-197c-37.333 27.333 -77.833 48.5 -121.5 63.5s-87.167 22.5 -130.5 22.5c-108.667 0 -194.834 -30.833 -258.501 -92.5s-95.5 -144.834 -95.5 -249.501c0 -100 32.167 -180 96.5 -240s150.166 -90 257.499 -90c49.333 0 96.5 7.66699 141.5 23
s85.167 37 120.5 65v-196zM653.003 1241c0 -30.667 -10 -56 -30 -76s-45.333 -30 -76 -30c-30 0 -55.333 10.333 -76 31s-31 45.667 -31 75c0 28.667 10.667 53.667 32 75s46.333 32 75 32c29.333 0 54.333 -10.333 75 -31s31 -46 31 -76z" />
    <glyph glyph-name="Ccaron" unicode="&#x10c;" horiz-adv-x="1354" 
d="M1296 96c-58.667 -38 -129.001 -69 -211.001 -93s-159 -36 -231 -36c-232 0 -419.333 74.5 -562 223.5s-214 343.5 -214 583.5c0 232 72.667 423.833 218 575.5s332 227.5 560 227.5c89.333 0 169.833 -10.5 241.5 -31.5s137.834 -53.5 198.501 -97.5v-215
c-66.667 54.667 -134.5 95.667 -203.5 123s-140.167 41 -213.5 41c-179.333 0 -325.666 -58.333 -438.999 -175s-170 -266 -170 -448c0 -184 54.167 -334.5 162.5 -451.5s248.166 -175.5 419.499 -175.5c82.667 0 161 14 235 42s143.667 70 209 126v-219zM1126 1942
l-291 -291l-290 291l59 74l231 -191l232 191z" />
    <glyph glyph-name="ccaron" unicode="&#x10d;" horiz-adv-x="903" 
d="M852 35c-42.667 -23.333 -86.8311 -40.498 -132.498 -51.498s-96.5 -16.5 -152.5 -16.5c-153.333 0 -277.666 47.167 -372.999 141.5s-143 217.166 -143 368.499c0 153.333 48.667 277.333 146 372s225.666 142 384.999 142c49.333 0 94.5 -5.16699 135.5 -15.5
s82.5 -26.833 124.5 -49.5v-197c-37.333 27.333 -77.833 48.5 -121.5 63.5s-87.167 22.5 -130.5 22.5c-108.667 0 -194.834 -30.833 -258.501 -92.5s-95.5 -144.834 -95.5 -249.501c0 -100 32.167 -180 96.5 -240s150.166 -90 257.499 -90c49.333 0 96.5 7.66699 141.5 23
s85.167 37 120.5 65v-196zM837.003 1356l-291 -291l-290 291l59 74l231 -191l232 191z" />
    <glyph glyph-name="Dcaron" unicode="&#x10e;" horiz-adv-x="1362" 
d="M1108 772c0 192 -54.332 338.667 -162.999 440s-266.667 152 -474 152h-135v-1184h121c221.333 0 385.166 48.833 491.499 146.5s159.5 246.167 159.5 445.5zM1300 770c0 -252.667 -72.667 -444.167 -218 -574.5s-358 -195.5 -638 -195.5h-301v1544h306
c274 0 484.333 -67 631 -201s220 -325 220 -573zM895.001 1942l-291 -291l-290 291l59 74l231 -191l232 191z" />
    <glyph glyph-name="dcaron" unicode="&#x10f;" horiz-adv-x="1706" 
d="M821 489c0 102 -26.002 181.833 -78.002 239.5s-123 86.5 -213 86.5c-89.333 0 -160.666 -29.833 -213.999 -89.5s-80 -140.5 -80 -242.5c0 -102.667 26.333 -185 79 -247s122.334 -93 209.001 -93c88 0 159.5 32 214.5 96s82.5 147.333 82.5 250zM1006 0
l-184.998 0.000976562v150c-31.333 -60.667 -74 -106.334 -128 -137.001s-119 -46 -195 -46c-132.667 0 -240.334 48 -323.001 144s-124 220.667 -124 374c0 150.667 41.5 272.667 124.5 366s191.833 140 326.5 140c71.333 0 133.666 -14.167 186.999 -42.5
s97.333 -70.833 132 -127.5v869h185v-1690zM1610 1499l-266 -528l-113 43l193 563z" />
    <glyph glyph-name="Dslash" unicode="&#x110;" horiz-adv-x="1362" 
d="M1108 772c0 192 -54.332 338.667 -162.999 440s-266.667 152 -474 152h-135v-508h375v-154h-375v-522h121c221.333 0 385.166 48.833 491.499 146.5s159.5 246.167 159.5 445.5zM1300 770c0 -252.667 -72.667 -444.167 -218 -574.5s-358 -195.5 -638 -195.5h-301v702
h-143v154h143v688h306c274 0 484.333 -67 631 -201s220 -325 220 -573z" />
    <glyph glyph-name="dcroat" unicode="&#x111;" horiz-adv-x="1139" 
d="M821 489c0 102 -26.002 181.833 -78.002 239.5s-123 86.5 -213 86.5c-89.333 0 -160.666 -29.833 -213.999 -89.5s-80 -140.5 -80 -242.5c0 -102.667 26.333 -185 79 -247s122.334 -93 209.001 -93c88 0 159.5 32 214.5 96s82.5 147.333 82.5 250zM1139 1243
l-132.998 0.000976562v-1243h-185v150c-31.333 -60.667 -74 -106.334 -128 -137.001s-119 -46 -195 -46c-132.667 0 -240.334 48 -323.001 144s-124 220.667 -124 374c0 150.667 41.5 272.667 124.5 366s191.833 140 326.5 140c71.333 0 133.666 -14.167 186.999 -42.5
s97.333 -70.833 132 -127.5v422h-352v129h352v318h185v-318h133v-129z" />
    <glyph glyph-name="Emacron" unicode="&#x112;" horiz-adv-x="1067" 
d="M954 0h-811v1544h811v-180h-618v-451h618v-180h-618v-553h618v-180zM823 1755h-552v125h552v-125z" />
    <glyph glyph-name="emacron" unicode="&#x113;" horiz-adv-x="999" 
d="M776 571c-8 79.333 -35 139.833 -81 181.5s-108.333 62.5 -187 62.5c-75.333 0 -137.5 -21.5 -186.5 -64.5s-78.5 -102.833 -88.5 -179.5h543zM958 444l-729.001 0.000976562c7.33301 -98 35.166 -172.667 83.499 -224s115.5 -77 201.5 -77
c65.333 0 119.333 12.667 162 38s77.334 64.666 104.001 117.999l154 -82c-44 -84 -100.667 -146.667 -170 -188s-153.333 -62 -252 -62c-143.333 0 -257 47 -341 141s-126 219.667 -126 377c0 146 44.167 266.833 132.5 362.5s198.5 143.5 330.5 143.5
c134.667 0 243.334 -43.833 326.001 -131.5s124 -203.5 124 -347.5v-68zM775.999 1169h-552v125h552v-125z" />
    <glyph glyph-name="Ebreve" unicode="&#x114;" horiz-adv-x="1067" 
d="M954 0h-811v1544h811v-180h-618v-451h618v-180h-618v-553h618v-180zM842 1942c-18.667 -86 -52.001 -149.5 -100.001 -190.5s-112.333 -61.5 -193 -61.5c-82.667 0 -149.167 21.5 -199.5 64.5s-82.166 105.5 -95.499 187.5l88 30c12.667 -51.333 36.667 -90.333 72 -117
s80.333 -40 135 -40c54 0 98 13.167 132 39.5s57.667 65.5 71 117.5z" />
    <glyph glyph-name="ebreve" unicode="&#x115;" horiz-adv-x="999" 
d="M776 571c-8 79.333 -35 139.833 -81 181.5s-108.333 62.5 -187 62.5c-75.333 0 -137.5 -21.5 -186.5 -64.5s-78.5 -102.833 -88.5 -179.5h543zM958 444l-729.001 0.000976562c7.33301 -98 35.166 -172.667 83.499 -224s115.5 -77 201.5 -77
c65.333 0 119.333 12.667 162 38s77.334 64.666 104.001 117.999l154 -82c-44 -84 -100.667 -146.667 -170 -188s-153.333 -62 -252 -62c-143.333 0 -257 47 -341 141s-126 219.667 -126 377c0 146 44.167 266.833 132.5 362.5s198.5 143.5 330.5 143.5
c134.667 0 243.334 -43.833 326.001 -131.5s124 -203.5 124 -347.5v-68zM794.999 1356c-18.667 -86 -52.001 -149.5 -100.001 -190.5s-112.333 -61.5 -193 -61.5c-82.667 0 -149.167 21.5 -199.5 64.5s-82.166 105.5 -95.499 187.5l88 30
c12.667 -51.333 36.667 -90.333 72 -117s80.333 -40 135 -40c54 0 98 13.167 132 39.5s57.667 65.5 71 117.5z" />
    <glyph glyph-name="Edot" unicode="&#x116;" horiz-adv-x="1067" 
d="M954 0h-811v1544h811v-180h-618v-451h618v-180h-618v-553h618v-180zM653 1827c0 -30.667 -10 -56 -30 -76s-45.333 -30 -76 -30c-30 0 -55.333 10.333 -76 31s-31 45.667 -31 75c0 28.667 10.667 53.667 32 75s46.333 32 75 32c29.333 0 54.333 -10.333 75 -31
s31 -46 31 -76z" />
    <glyph glyph-name="edot" unicode="&#x117;" horiz-adv-x="999" 
d="M776 571c-8 79.333 -35 139.833 -81 181.5s-108.333 62.5 -187 62.5c-75.333 0 -137.5 -21.5 -186.5 -64.5s-78.5 -102.833 -88.5 -179.5h543zM958 444l-729.001 0.000976562c7.33301 -98 35.166 -172.667 83.499 -224s115.5 -77 201.5 -77
c65.333 0 119.333 12.667 162 38s77.334 64.666 104.001 117.999l154 -82c-44 -84 -100.667 -146.667 -170 -188s-153.333 -62 -252 -62c-143.333 0 -257 47 -341 141s-126 219.667 -126 377c0 146 44.167 266.833 132.5 362.5s198.5 143.5 330.5 143.5
c134.667 0 243.334 -43.833 326.001 -131.5s124 -203.5 124 -347.5v-68zM605.999 1241c0 -30.667 -10 -56 -30 -76s-45.333 -30 -76 -30c-30 0 -55.333 10.333 -76 31s-31 45.667 -31 75c0 28.667 10.667 53.667 32 75s46.333 32 75 32c29.333 0 54.333 -10.333 75 -31
s31 -46 31 -76z" />
    <glyph glyph-name="Eogonek" unicode="&#x118;" horiz-adv-x="1067" 
d="M954 -465c-104.667 0 -179.166 14.832 -223.499 44.499s-66.5 79.834 -66.5 150.501c0 43.333 13.667 89.166 41 137.499s64.666 92.5 111.999 132.5h-674v1544h811v-180h-618v-451h618v-180h-618v-553h618v-180h-36c-37.333 -34.667 -66.833 -72.667 -88.5 -114
s-32.5 -79.666 -32.5 -114.999c0 -40 12.167 -68.5 36.5 -85.5s64.5 -25.5 120.5 -25.5v-125z" />
    <glyph glyph-name="eogonek" unicode="&#x119;" horiz-adv-x="999" 
d="M776 571c-8 79.333 -35 139.833 -81 181.5s-108.333 62.5 -187 62.5c-75.333 0 -137.5 -21.5 -186.5 -64.5s-78.5 -102.833 -88.5 -179.5h543zM958 444l-729.003 -0.000976562c7.33301 -98 35.166 -172.667 83.499 -224s115.5 -77 201.5 -77
c65.333 0 119.333 12.667 162 38s77.334 64.666 104.001 117.999l154 -82c-36 -69.333 -80.667 -124 -134 -164s-116.666 -66 -189.999 -78c-30 -33.333 -53.5 -68 -70.5 -104s-25.5 -69.333 -25.5 -100c0 -40 12.167 -68.5 36.5 -85.5s64.833 -25.5 121.5 -25.5v-125
c-105.333 0 -180.166 14.833 -224.499 44.5s-66.5 79.834 -66.5 150.501c0 37.333 10.5 76.833 31.5 118.5s49.833 81.167 86.5 118.5c-139.333 3.33301 -249.833 51.833 -331.5 145.5s-122.5 217.834 -122.5 372.501c0 146 44.167 266.833 132.5 362.5
s198.5 143.5 330.5 143.5c134.667 0 243.334 -43.833 326.001 -131.5s124 -203.5 124 -347.5v-68z" />
    <glyph glyph-name="Ecaron" unicode="&#x11a;" horiz-adv-x="1067" 
d="M954 0h-811v1544h811v-180h-618v-451h618v-180h-618v-553h618v-180zM837 1942l-291 -291l-290 291l59 74l231 -191l232 191z" />
    <glyph glyph-name="ecaron" unicode="&#x11b;" horiz-adv-x="999" 
d="M776 571c-8 79.333 -35 139.833 -81 181.5s-108.333 62.5 -187 62.5c-75.333 0 -137.5 -21.5 -186.5 -64.5s-78.5 -102.833 -88.5 -179.5h543zM958 444l-729.001 0.000976562c7.33301 -98 35.166 -172.667 83.499 -224s115.5 -77 201.5 -77
c65.333 0 119.333 12.667 162 38s77.334 64.666 104.001 117.999l154 -82c-44 -84 -100.667 -146.667 -170 -188s-153.333 -62 -252 -62c-143.333 0 -257 47 -341 141s-126 219.667 -126 377c0 146 44.167 266.833 132.5 362.5s198.5 143.5 330.5 143.5
c134.667 0 243.334 -43.833 326.001 -131.5s124 -203.5 124 -347.5v-68zM789.999 1356l-291 -291l-290 291l59 74l231 -191l232 191z" />
    <glyph glyph-name="Gcircumflex" unicode="&#x11c;" horiz-adv-x="1597" 
d="M1546 764c0 -240.667 -65.8311 -433.667 -197.498 -579s-307.5 -218 -527.5 -218c-221.333 0 -403.333 75.5 -546 226.5s-214 343.833 -214 578.5c0 232 71.167 424.167 213.5 576.5s322.5 228.5 540.5 228.5c136.667 0 256.167 -26 358.5 -78s189.833 -131 262.5 -237
l-146 -113c-54 82 -120.333 143.833 -199 185.5s-168.667 62.5 -270 62.5c-166.667 0 -302.834 -59.5 -408.501 -178.5s-158.5 -270.5 -158.5 -454.5c0 -176 53.667 -322.833 161 -440.5s242.666 -176.5 405.999 -176.5c140.667 0 258 43.167 352 129.5s148 197.5 162 333.5
h-465v181h676v-27zM1089 1737l-59 -76l-232 191l-231 -191l-60 76l291 289z" />
    <glyph glyph-name="gcircumflex" unicode="&#x11d;" horiz-adv-x="1137" 
d="M819 489c0 102 -25.6689 181.833 -77.002 239.5s-122 86.5 -212 86.5c-89.333 0 -160.666 -29.833 -213.999 -89.5s-80 -140.5 -80 -242.5c0 -102.667 26.333 -185 79 -247s122.334 -93 209.001 -93c87.333 0 158.333 31.833 213 95.5s82 147.167 82 250.5zM1004 -51
c0 -175.333 -37 -302.834 -111 -382.501s-191.333 -119.5 -352 -119.5c-132 0 -237.333 29 -316 87s-124.334 139 -137.001 243h188c9.33301 -50.667 36.5 -89 81.5 -115s106.833 -39 185.5 -39c102.667 0 174.334 23.667 215.001 71s61 127.333 61 240v216
c-31.333 -61.333 -73.833 -107.166 -127.5 -137.499s-118.167 -45.5 -193.5 -45.5c-132.667 0 -240.334 48 -323.001 144s-124 220.667 -124 374c0 150.667 41.5 272.667 124.5 366s191.833 140 326.5 140c71.333 0 133.333 -14 186 -42s96.334 -70.667 131.001 -128v137
h185v-1009zM859.998 1151l-59 -76l-232 191l-231 -191l-60 76l291 289z" />
    <glyph glyph-name="Gbreve" unicode="&#x11e;" horiz-adv-x="1597" 
d="M1546 764c0 -240.667 -65.8311 -433.667 -197.498 -579s-307.5 -218 -527.5 -218c-221.333 0 -403.333 75.5 -546 226.5s-214 343.833 -214 578.5c0 232 71.167 424.167 213.5 576.5s322.5 228.5 540.5 228.5c136.667 0 256.167 -26 358.5 -78s189.833 -131 262.5 -237
l-146 -113c-54 82 -120.333 143.833 -199 185.5s-168.667 62.5 -270 62.5c-166.667 0 -302.834 -59.5 -408.501 -178.5s-158.5 -270.5 -158.5 -454.5c0 -176 53.667 -322.833 161 -440.5s242.666 -176.5 405.999 -176.5c140.667 0 258 43.167 352 129.5s148 197.5 162 333.5
h-465v181h676v-27zM1094 1942c-18.667 -86 -52.001 -149.5 -100.001 -190.5s-112.333 -61.5 -193 -61.5c-82.667 0 -149.167 21.5 -199.5 64.5s-82.166 105.5 -95.499 187.5l88 30c12.667 -51.333 36.667 -90.333 72 -117s80.333 -40 135 -40c54 0 98 13.167 132 39.5
s57.667 65.5 71 117.5z" />
    <glyph glyph-name="gbreve" unicode="&#x11f;" horiz-adv-x="1137" 
d="M819 489c0 102 -25.6689 181.833 -77.002 239.5s-122 86.5 -212 86.5c-89.333 0 -160.666 -29.833 -213.999 -89.5s-80 -140.5 -80 -242.5c0 -102.667 26.333 -185 79 -247s122.334 -93 209.001 -93c87.333 0 158.333 31.833 213 95.5s82 147.167 82 250.5zM1004 -51
c0 -175.333 -37 -302.834 -111 -382.501s-191.333 -119.5 -352 -119.5c-132 0 -237.333 29 -316 87s-124.334 139 -137.001 243h188c9.33301 -50.667 36.5 -89 81.5 -115s106.833 -39 185.5 -39c102.667 0 174.334 23.667 215.001 71s61 127.333 61 240v216
c-31.333 -61.333 -73.833 -107.166 -127.5 -137.499s-118.167 -45.5 -193.5 -45.5c-132.667 0 -240.334 48 -323.001 144s-124 220.667 -124 374c0 150.667 41.5 272.667 124.5 366s191.833 140 326.5 140c71.333 0 133.333 -14 186 -42s96.334 -70.667 131.001 -128v137
h185v-1009zM864.998 1356c-18.667 -86 -52.001 -149.5 -100.001 -190.5s-112.333 -61.5 -193 -61.5c-82.667 0 -149.167 21.5 -199.5 64.5s-82.166 105.5 -95.499 187.5l88 30c12.667 -51.333 36.667 -90.333 72 -117s80.333 -40 135 -40c54 0 98 13.167 132 39.5
s57.667 65.5 71 117.5z" />
    <glyph glyph-name="Gdot" unicode="&#x120;" horiz-adv-x="1597" 
d="M1546 764c0 -240.667 -65.8311 -433.667 -197.498 -579s-307.5 -218 -527.5 -218c-221.333 0 -403.333 75.5 -546 226.5s-214 343.833 -214 578.5c0 232 71.167 424.167 213.5 576.5s322.5 228.5 540.5 228.5c136.667 0 256.167 -26 358.5 -78s189.833 -131 262.5 -237
l-146 -113c-54 82 -120.333 143.833 -199 185.5s-168.667 62.5 -270 62.5c-166.667 0 -302.834 -59.5 -408.501 -178.5s-158.5 -270.5 -158.5 -454.5c0 -176 53.667 -322.833 161 -440.5s242.666 -176.5 405.999 -176.5c140.667 0 258 43.167 352 129.5s148 197.5 162 333.5
h-465v181h676v-27zM905.002 1827c0 -30.667 -10 -56 -30 -76s-45.333 -30 -76 -30c-30 0 -55.333 10.333 -76 31s-31 45.667 -31 75c0 28.667 10.667 53.667 32 75s46.333 32 75 32c29.333 0 54.333 -10.333 75 -31s31 -46 31 -76z" />
    <glyph glyph-name="gdot" unicode="&#x121;" horiz-adv-x="1137" 
d="M819 489c0 102 -25.6689 181.833 -77.002 239.5s-122 86.5 -212 86.5c-89.333 0 -160.666 -29.833 -213.999 -89.5s-80 -140.5 -80 -242.5c0 -102.667 26.333 -185 79 -247s122.334 -93 209.001 -93c87.333 0 158.333 31.833 213 95.5s82 147.167 82 250.5zM1004 -51
c0 -175.333 -37 -302.834 -111 -382.501s-191.333 -119.5 -352 -119.5c-132 0 -237.333 29 -316 87s-124.334 139 -137.001 243h188c9.33301 -50.667 36.5 -89 81.5 -115s106.833 -39 185.5 -39c102.667 0 174.334 23.667 215.001 71s61 127.333 61 240v216
c-31.333 -61.333 -73.833 -107.166 -127.5 -137.499s-118.167 -45.5 -193.5 -45.5c-132.667 0 -240.334 48 -323.001 144s-124 220.667 -124 374c0 150.667 41.5 272.667 124.5 366s191.833 140 326.5 140c71.333 0 133.333 -14 186 -42s96.334 -70.667 131.001 -128v137
h185v-1009zM675.998 1241c0 -30.667 -10 -56 -30 -76s-45.333 -30 -76 -30c-30 0 -55.333 10.333 -76 31s-31 45.667 -31 75c0 28.667 10.667 53.667 32 75s46.333 32 75 32c29.333 0 54.333 -10.333 75 -31s31 -46 31 -76z" />
    <glyph glyph-name="Gcedilla" unicode="&#x122;" horiz-adv-x="1597" 
d="M1546 764c0 -240.667 -65.8311 -433.667 -197.498 -579s-307.5 -218 -527.5 -218c-221.333 0 -403.333 75.5 -546 226.5s-214 343.833 -214 578.5c0 232 71.167 424.167 213.5 576.5s322.5 228.5 540.5 228.5c136.667 0 256.167 -26 358.5 -78s189.833 -131 262.5 -237
l-146 -113c-54 82 -120.333 143.833 -199 185.5s-168.667 62.5 -270 62.5c-166.667 0 -302.834 -59.5 -408.501 -178.5s-158.5 -270.5 -158.5 -454.5c0 -176 53.667 -322.833 161 -440.5s242.666 -176.5 405.999 -176.5c140.667 0 258 43.167 352 129.5s148 197.5 162 333.5
h-465v181h676v-27zM930.002 -113l-238 -319l-81 57l200 342z" />
    <glyph glyph-name="gcedilla" unicode="&#x123;" horiz-adv-x="1137" 
d="M819 489c0 102 -25.6689 181.833 -77.002 239.5s-122 86.5 -212 86.5c-89.333 0 -160.666 -29.833 -213.999 -89.5s-80 -140.5 -80 -242.5c0 -102.667 26.333 -185 79 -247s122.334 -93 209.001 -93c87.333 0 158.333 31.833 213 95.5s82 147.167 82 250.5zM1004 -51
c0 -175.333 -37 -302.834 -111 -382.501s-191.333 -119.5 -352 -119.5c-132 0 -237.333 29 -316 87s-124.334 139 -137.001 243h188c9.33301 -50.667 36.5 -89 81.5 -115s106.833 -39 185.5 -39c102.667 0 174.334 23.667 215.001 71s61 127.333 61 240v216
c-31.333 -61.333 -73.833 -107.166 -127.5 -137.499s-118.167 -45.5 -193.5 -45.5c-132.667 0 -240.334 48 -323.001 144s-124 220.667 -124 374c0 150.667 41.5 272.667 124.5 366s191.833 140 326.5 140c71.333 0 133.333 -14 186 -42s96.334 -70.667 131.001 -128v137
h185v-1009zM816.998 1335l-307 -260l-65 74l282 295z" />
    <glyph glyph-name="Hcircumflex" unicode="&#x124;" horiz-adv-x="1382" 
d="M1239 0h-192v733h-711v-733h-193v1544h193v-631h711v631h192v-1544zM983 1737l-59 -76l-232 191l-231 -191l-60 76l291 289z" />
    <glyph glyph-name="hcircumflex" unicode="&#x125;" horiz-adv-x="1071" 
d="M944 0l-184.001 0.00195312v567c0 89.333 -16 155 -48 197s-82.333 63 -151 63c-78 0 -138.167 -31.333 -180.5 -94s-63.5 -153.334 -63.5 -272.001v-461h-184v1690h184v-867c28.667 55.333 68.834 97.166 120.501 125.499s114.167 42.5 187.5 42.5
c99.333 0 177.333 -33 234 -99s85 -158.667 85 -278v-614zM529.999 1849l-59 -76l-232 191l-231 -191l-60 76l291 289z" />
    <glyph glyph-name="Itilde" unicode="&#x128;" horiz-adv-x="475" 
d="M334 0h-193v1544h193v-1544zM573 1868c-21.333 -54 -49.168 -94.832 -83.501 -122.499s-73.5 -41.5 -117.5 -41.5c-22 0 -45 4.33301 -69 13s-51 22.334 -81 41.001l-11 7c-53.333 33.333 -91 50 -113 50c-26 0 -47.5 -6.33301 -64.5 -19s-33.833 -36.334 -50.5 -71.001
l-80 49c22.667 54 50.5 94.5 83.5 121.5s71.5 40.5 115.5 40.5c22 0 45 -4.33301 69 -13s51 -22.334 81 -41.001v0c58.667 -38 100.334 -57 125.001 -57c26 0 47.333 6 64 18s34 36 52 72z" />
    <glyph glyph-name="itilde" unicode="&#x129;" horiz-adv-x="520" 
d="M352 0h-184v958h184v-958zM596 1282c-21.333 -54 -49.168 -94.832 -83.501 -122.499s-73.5 -41.5 -117.5 -41.5c-22 0 -45 4.33301 -69 13s-51 22.334 -81 41.001l-11 7c-53.333 33.333 -91 50 -113 50c-26 0 -47.5 -6.33301 -64.5 -19s-33.833 -36.334 -50.5 -71.001
l-80 49c22.667 54 50.5 94.5 83.5 121.5s71.5 40.5 115.5 40.5c22 0 45 -4.33301 69 -13s51 -22.334 81 -41.001v0c58.667 -38 100.334 -57 125.001 -57c26 0 47.333 6 64 18s34 36 52 72z" />
    <glyph glyph-name="Imacron" unicode="&#x12a;" horiz-adv-x="475" 
d="M334 0h-193v1544h193v-1544zM514 1755h-552v125h552v-125z" />
    <glyph glyph-name="imacron" unicode="&#x12b;" horiz-adv-x="520" 
d="M352 0h-184v958h184v-958zM536 1169h-552v125h552v-125z" />
    <glyph glyph-name="Ibreve" unicode="&#x12c;" horiz-adv-x="475" 
d="M334 0h-193v1544h193v-1544zM533 1942c-18.667 -86 -52.001 -149.5 -100.001 -190.5s-112.333 -61.5 -193 -61.5c-82.667 0 -149.167 21.5 -199.5 64.5s-82.166 105.5 -95.499 187.5l88 30c12.667 -51.333 36.667 -90.333 72 -117s80.333 -40 135 -40
c54 0 98 13.167 132 39.5s57.667 65.5 71 117.5z" />
    <glyph glyph-name="ibreve" unicode="&#x12d;" horiz-adv-x="520" 
d="M352 0h-184v958h184v-958zM555 1356c-18.667 -86 -52.001 -149.5 -100.001 -190.5s-112.333 -61.5 -193 -61.5c-82.667 0 -149.167 21.5 -199.5 64.5s-82.166 105.5 -95.499 187.5l88 30c12.667 -51.333 36.667 -90.333 72 -117s80.333 -40 135 -40
c54 0 98 13.167 132 39.5s57.667 65.5 71 117.5z" />
    <glyph glyph-name="Iogonek" unicode="&#x12e;" horiz-adv-x="475" 
d="M371 -465c-105.333 0 -180.166 14.832 -224.499 44.499s-66.5 79.834 -66.5 150.501c0 43.333 13.667 89.166 41 137.499s64.666 92.5 111.999 132.5h-92v1544h193v-1544c-37.333 -34.667 -66.833 -72.667 -88.5 -114s-32.5 -79.666 -32.5 -114.999
c0 -40 12.167 -68.5 36.5 -85.5s64.833 -25.5 121.5 -25.5v-125z" />
    <glyph glyph-name="iogonek" unicode="&#x12f;" horiz-adv-x="520" 
d="M389 -465c-105.333 0 -180.167 14.832 -224.5 44.499s-66.5 79.834 -66.5 150.501c0 43.333 13.833 89.166 41.5 137.499s65.167 92.5 112.5 132.5h-84v958h184v-958c-36.667 -34.667 -66 -72.667 -88 -114s-33 -79.666 -33 -114.999c0 -40 12.333 -68.5 37 -85.5
s65 -25.5 121 -25.5v-125zM380.999 1346c0 -34 -11.667 -62.667 -35 -86s-52 -35 -86 -35s-62.667 11.667 -86 35s-35 52 -35 86c0 33.333 11.667 61.666 35 84.999s52 35 86 35s62.667 -11.667 86 -35s35 -51.666 35 -84.999z" />
    <glyph glyph-name="Idotaccent" unicode="&#x130;" horiz-adv-x="475" 
d="M334 0h-193v1544h193v-1544zM344 1827c0 -30.667 -10 -56 -30 -76s-45.333 -30 -76 -30c-30 0 -55.333 10.333 -76 31s-31 45.667 -31 75c0 28.667 10.667 53.667 32 75s46.333 32 75 32c29.333 0 54.333 -10.333 75 -31s31 -46 31 -76z" />
    <glyph glyph-name="dotlessi" unicode="&#x131;" horiz-adv-x="520" 
d="M352 0h-184v958h184v-958z" />
    <glyph glyph-name="Kcedilla" unicode="&#x136;" horiz-adv-x="1229" 
d="M1237 0h-240l-651 801v-801h-192v1544h192v-719l637 719h227l-655 -723zM745 -113l-238 -319l-81 57l200 342z" />
    <glyph glyph-name="kcedilla" unicode="&#x137;" horiz-adv-x="946" 
d="M944 0h-221l-395 506v-506h-185v1690h185v-1158l366 426h217l-391 -430zM604 -113l-238 -319l-81 57l200 342z" />
    <glyph glyph-name="Lacute" unicode="&#x139;" horiz-adv-x="788" 
d="M766 0h-612v1544h192v-1368h420v-176zM510 1921l-307 -260l-65 74l282 295z" />
    <glyph glyph-name="lacute" unicode="&#x13a;" horiz-adv-x="455" 
d="M315 0h-184v1690h184v-1690zM475 2033l-307 -260l-65 74l282 295z" />
    <glyph glyph-name="Lcedilla" unicode="&#x13b;" horiz-adv-x="788" 
d="M766 0h-612v1544h192v-1368h420v-176zM526 -113l-238 -319l-81 57l200 342z" />
    <glyph glyph-name="lcedilla" unicode="&#x13c;" horiz-adv-x="455" 
d="M315 0h-184v1690h184v-1690zM358 -113l-238 -319l-81 57l200 342z" />
    <glyph glyph-name="Lcaron" unicode="&#x13d;" horiz-adv-x="788" 
d="M766 0h-612v1544h192v-1368h420v-176zM829 1499l-266 -528l-112 43l192 563z" />
    <glyph glyph-name="lcaron" unicode="&#x13e;" horiz-adv-x="758" 
d="M315 0h-184v1690h184v-1690zM799 1499l-267 -528l-112 43l192 563z" />
    <glyph glyph-name="Ldot" unicode="&#x13f;" horiz-adv-x="1380" 
d="M766 0h-612v1544h192v-1368h420v-176zM1212 788c0 -34.667 -12.333 -64.334 -37 -89.001s-54.667 -37 -90 -37s-65.333 12.333 -90 37s-37 54.334 -37 89.001c0 36 12.333 66.167 37 90.5s54.667 36.5 90 36.5s65.333 -12.167 90 -36.5s37 -54.5 37 -90.5z" />
    <glyph glyph-name="ldot" unicode="&#x140;" horiz-adv-x="1047" 
d="M315 0h-184v1690h184v-1690zM879 788c0 -34.667 -12.333 -64.334 -37 -89.001s-54.667 -37 -90 -37s-65.333 12.333 -90 37s-37 54.334 -37 89.001c0 36 12.333 66.167 37 90.5s54.667 36.5 90 36.5s65.333 -12.167 90 -36.5s37 -54.5 37 -90.5z" />
    <glyph glyph-name="Lslash" unicode="&#x141;" horiz-adv-x="788" 
d="M766 0h-612v621l-99 -74l-84 121l183 133v743h192v-637l217 160l86 -121l-303 -219v-551h420v-176z" />
    <glyph glyph-name="lslash" unicode="&#x142;" horiz-adv-x="522" 
d="M553 860l-199 -135v-725h-184v621l-127 -84l-74 110l201 135v908h184v-803l125 84z" />
    <glyph glyph-name="Nacute" unicode="&#x143;" horiz-adv-x="1608" 
d="M1464 -45l-1128 1171v-1126h-193v1589l1129 -1169v1124h192v-1589zM1032 1921l-307 -260l-65 74l282 295z" />
    <glyph glyph-name="nacute" unicode="&#x144;" horiz-adv-x="1071" 
d="M944 0l-184.001 0.00195312v567c0 89.333 -16 155 -48 197s-82.333 63 -151 63c-78 0 -138.167 -31.333 -180.5 -94s-63.5 -153.334 -63.5 -272.001v-461h-184v958h184v-135c28.667 55.333 68.834 97.166 120.501 125.499s114.167 42.5 187.5 42.5
c99.333 0 177.333 -33 234 -99s85 -158.667 85 -278v-614zM783.999 1335l-307 -260l-65 74l282 295z" />
    <glyph glyph-name="Ncedilla" unicode="&#x145;" horiz-adv-x="1608" 
d="M1464 -45l-1128 1171v-1126h-193v1589l1129 -1169v1124h192v-1589zM936 -113l-238 -319l-81 57l200 342z" />
    <glyph glyph-name="ncedilla" unicode="&#x146;" horiz-adv-x="1071" 
d="M944 0l-184.001 0.00195312v567c0 89.333 -16 155 -48 197s-82.333 63 -151 63c-78 0 -138.167 -31.333 -180.5 -94s-63.5 -153.334 -63.5 -272.001v-461h-184v958h184v-135c28.667 55.333 68.834 97.166 120.501 125.499s114.167 42.5 187.5 42.5
c99.333 0 177.333 -33 234 -99s85 -158.667 85 -278v-614zM667.999 -112.998l-238 -319l-81 57l200 342z" />
    <glyph glyph-name="Ncaron" unicode="&#x147;" horiz-adv-x="1608" 
d="M1464 -45l-1128 1171v-1126h-193v1589l1129 -1169v1124h192v-1589zM1075 1942l-291 -291l-290 291l59 74l231 -191l232 191z" />
    <glyph glyph-name="ncaron" unicode="&#x148;" horiz-adv-x="1071" 
d="M944 0l-184.001 0.00195312v567c0 89.333 -16 155 -48 197s-82.333 63 -151 63c-78 0 -138.167 -31.333 -180.5 -94s-63.5 -153.334 -63.5 -272.001v-461h-184v958h184v-135c28.667 55.333 68.834 97.166 120.501 125.499s114.167 42.5 187.5 42.5
c99.333 0 177.333 -33 234 -99s85 -158.667 85 -278v-614zM826.999 1356l-291 -291l-290 291l59 74l231 -191l232 191z" />
    <glyph glyph-name="Omacron" unicode="&#x14c;" horiz-adv-x="1696" 
d="M1442 772c0 174.667 -57.333 322.5 -172 443.5s-255.334 181.5 -422.001 181.5c-180 0 -323.333 -61.167 -430 -183.5s-160 -269.5 -160 -441.5c0 -174.667 56.667 -322.5 170 -443.5s253.333 -181.5 420 -181.5s307.334 60.667 422.001 182s172 269 172 443zM1634 772
c0 -225.333 -76.167 -415.833 -228.5 -571.5s-338.166 -233.5 -557.499 -233.5c-218 0 -403.667 78.167 -557 234.5s-230 346.5 -230 570.5c0 227.333 75.833 418.333 227.5 573s338.167 232 559.5 232s407.666 -77.333 558.999 -232s227 -345.667 227 -573zM1124 1755h-552
v125h552v-125z" />
    <glyph glyph-name="omacron" unicode="&#x14d;" horiz-adv-x="1106" 
d="M877 483c0 96.667 -30.833 176.167 -92.5 238.5s-138.834 93.5 -231.501 93.5c-94 0 -171.5 -31 -232.5 -93s-91.5 -141.667 -91.5 -239c0 -98.667 30.833 -180 92.5 -244s138.834 -96 231.501 -96c94 0 171.5 32 232.5 96s91.5 145.333 91.5 244zM1061 483
c0 -144 -49.1689 -266.001 -147.502 -366.001s-219.166 -150 -362.499 -150c-142.667 0 -262.667 49.833 -360 149.5s-146 221.834 -146 366.501s48.333 265.5 145 362.5s217 145.5 361 145.5c144.667 0 265.834 -48.833 363.501 -146.5s146.5 -218.167 146.5 -361.5z
M828.998 1169h-552v125h552v-125z" />
    <glyph glyph-name="Obreve" unicode="&#x14e;" horiz-adv-x="1696" 
d="M1442 772c0 174.667 -57.333 322.5 -172 443.5s-255.334 181.5 -422.001 181.5c-180 0 -323.333 -61.167 -430 -183.5s-160 -269.5 -160 -441.5c0 -174.667 56.667 -322.5 170 -443.5s253.333 -181.5 420 -181.5s307.334 60.667 422.001 182s172 269 172 443zM1634 772
c0 -225.333 -76.167 -415.833 -228.5 -571.5s-338.166 -233.5 -557.499 -233.5c-218 0 -403.667 78.167 -557 234.5s-230 346.5 -230 570.5c0 227.333 75.833 418.333 227.5 573s338.167 232 559.5 232s407.666 -77.333 558.999 -232s227 -345.667 227 -573zM1143 1942
c-18.667 -86 -52.001 -149.5 -100.001 -190.5s-112.333 -61.5 -193 -61.5c-82.667 0 -149.167 21.5 -199.5 64.5s-82.166 105.5 -95.499 187.5l88 30c12.667 -51.333 36.667 -90.333 72 -117s80.333 -40 135 -40c54 0 98 13.167 132 39.5s57.667 65.5 71 117.5z" />
    <glyph glyph-name="obreve" unicode="&#x14f;" horiz-adv-x="1106" 
d="M877 483c0 96.667 -30.833 176.167 -92.5 238.5s-138.834 93.5 -231.501 93.5c-94 0 -171.5 -31 -232.5 -93s-91.5 -141.667 -91.5 -239c0 -98.667 30.833 -180 92.5 -244s138.834 -96 231.501 -96c94 0 171.5 32 232.5 96s91.5 145.333 91.5 244zM1061 483
c0 -144 -49.1689 -266.001 -147.502 -366.001s-219.166 -150 -362.499 -150c-142.667 0 -262.667 49.833 -360 149.5s-146 221.834 -146 366.501s48.333 265.5 145 362.5s217 145.5 361 145.5c144.667 0 265.834 -48.833 363.501 -146.5s146.5 -218.167 146.5 -361.5z
M847.998 1356c-18.667 -86 -52.001 -149.5 -100.001 -190.5s-112.333 -61.5 -193 -61.5c-82.667 0 -149.167 21.5 -199.5 64.5s-82.166 105.5 -95.499 187.5l88 30c12.667 -51.333 36.667 -90.333 72 -117s80.333 -40 135 -40c54 0 98 13.167 132 39.5s57.667 65.5 71 117.5
z" />
    <glyph glyph-name="Odblacute" unicode="&#x150;" horiz-adv-x="1696" 
d="M1442 772c0 174.667 -57.333 322.5 -172 443.5s-255.334 181.5 -422.001 181.5c-180 0 -323.333 -61.167 -430 -183.5s-160 -269.5 -160 -441.5c0 -174.667 56.667 -322.5 170 -443.5s253.333 -181.5 420 -181.5s307.334 60.667 422.001 182s172 269 172 443zM1634 772
c0 -225.333 -76.167 -415.833 -228.5 -571.5s-338.166 -233.5 -557.499 -233.5c-218 0 -403.667 78.167 -557 234.5s-230 346.5 -230 570.5c0 227.333 75.833 418.333 227.5 573s338.167 232 559.5 232s407.666 -77.333 558.999 -232s227 -345.667 227 -573zM897 1960
l-213 -299l-81 51l176 318zM1158 1942l-244 -281l-74 64l211 305z" />
    <glyph glyph-name="odblacute" unicode="&#x151;" horiz-adv-x="1106" 
d="M877 483c0 96.667 -30.833 176.167 -92.5 238.5s-138.834 93.5 -231.501 93.5c-94 0 -171.5 -31 -232.5 -93s-91.5 -141.667 -91.5 -239c0 -98.667 30.833 -180 92.5 -244s138.834 -96 231.501 -96c94 0 171.5 32 232.5 96s91.5 145.333 91.5 244zM1061 483
c0 -144 -49.1689 -266.001 -147.502 -366.001s-219.166 -150 -362.499 -150c-142.667 0 -262.667 49.833 -360 149.5s-146 221.834 -146 366.501s48.333 265.5 145 362.5s217 145.5 361 145.5c144.667 0 265.834 -48.833 363.501 -146.5s146.5 -218.167 146.5 -361.5z
M601.998 1374l-213 -299l-81 51l176 318zM862.998 1356l-244 -281l-74 64l211 305z" />
    <glyph glyph-name="OE" unicode="&#x152;" horiz-adv-x="2341" 
d="M1442 772c0 174.667 -57.333 322.5 -172 443.5s-255.334 181.5 -422.001 181.5c-180 0 -323.333 -61.167 -430 -183.5s-160 -269.5 -160 -441.5c0 -174.667 56.667 -322.5 170 -443.5s253.333 -181.5 420 -181.5s307.334 60.667 422.001 182s172 269 172 443zM2228 0
h-785.999v272c-70 -97.333 -156.333 -172.5 -259 -225.5s-214.334 -79.5 -335.001 -79.5c-218 0 -403.667 78.167 -557 234.5s-230 346.5 -230 570.5c0 227.333 75.833 418.333 227.5 573s338.167 232 559.5 232c122 0 234.5 -26.167 337.5 -78.5s188.5 -126.5 256.5 -222.5
v268h786v-180h-594v-451h594v-180h-594v-553h594v-180z" />
    <glyph glyph-name="oe" unicode="&#x153;" horiz-adv-x="1837" 
d="M877 483c0 96.667 -30.833 176.167 -92.5 238.5s-138.834 93.5 -231.501 93.5c-94 0 -171.5 -31 -232.5 -93s-91.5 -141.667 -91.5 -239c0 -98.667 30.833 -180 92.5 -244s138.834 -96 231.501 -96c94 0 171.5 32 232.5 96s91.5 145.333 91.5 244zM1614 571
c-8 79.333 -34.999 139.833 -80.999 181.5s-108.333 62.5 -187 62.5c-76.667 0 -140.334 -21.667 -191.001 -65s-80.667 -103 -90 -179h549zM1796 444h-735.001c6.66699 -96.667 35.167 -171 85.5 -223s118.833 -78 205.5 -78c65.333 0 119.333 12.667 162 38
s77.334 64.666 104.001 117.999l154 -82c-44 -84 -100.833 -146.667 -170.5 -188s-153.5 -62 -251.5 -62c-92 0 -171 20.167 -237 60.5s-116.667 99.5 -152 177.5c-42.667 -76 -99.5 -134.667 -170.5 -176s-150.833 -62 -239.5 -62c-142.667 0 -262.667 49.833 -360 149.5
s-146 221.834 -146 366.501s48.333 265.5 145 362.5s217 145.5 361 145.5c91.333 0 172.833 -20.833 244.5 -62.5s128.167 -100.5 169.5 -176.5c38 76 90.167 134.833 156.5 176.5s141.166 62.5 224.499 62.5c134.667 0 243.334 -43.833 326.001 -131.5
s124 -203.5 124 -347.5v-68z" />
    <glyph glyph-name="Racute" unicode="&#x154;" horiz-adv-x="1112" 
d="M809 1116c0 86 -27.333 148.833 -82 188.5s-140.667 59.5 -258 59.5h-133v-481h133c118.667 0 205 18.333 259 55s81 96 81 178zM1079 0h-233l-455 721h-55v-721h-193v1544h349c165.333 0 291.5 -36 378.5 -108s130.5 -175.333 130.5 -310c0 -120 -36 -215.333 -108 -286
s-170.333 -107.667 -295 -111zM804 1921l-307 -260l-65 74l282 295z" />
    <glyph glyph-name="racute" unicode="&#x155;" horiz-adv-x="719" 
d="M702 973l-38 -185.001c-13.333 8.66699 -27.5 15 -42.5 19s-30.5 6 -46.5 6c-81.333 0 -142.833 -33.5 -184.5 -100.5s-62.5 -166.5 -62.5 -298.5v-414h-185v958h185v-172c22 70.667 56.167 122.5 102.5 155.5s107.5 49.5 183.5 49.5c17.333 0 33.833 -1.66699 49.5 -5
s28.5 -7.66602 38.5 -12.999zM608 1335l-307 -260l-65 74l282 295z" />
    <glyph glyph-name="Rcedilla" unicode="&#x156;" horiz-adv-x="1112" 
d="M809 1116c0 86 -27.333 148.833 -82 188.5s-140.667 59.5 -258 59.5h-133v-481h133c118.667 0 205 18.333 259 55s81 96 81 178zM1079 0h-233l-455 721h-55v-721h-193v1544h349c165.333 0 291.5 -36 378.5 -108s130.5 -175.333 130.5 -310c0 -120 -36 -215.333 -108 -286
s-170.333 -107.667 -295 -111zM688 -113l-238 -319l-81 57l200 342z" />
    <glyph glyph-name="rcedilla" unicode="&#x157;" horiz-adv-x="719" 
d="M702 973l-38 -185.001c-13.333 8.66699 -27.5 15 -42.5 19s-30.5 6 -46.5 6c-81.333 0 -142.833 -33.5 -184.5 -100.5s-62.5 -166.5 -62.5 -298.5v-414h-185v958h185v-172c22 70.667 56.167 122.5 102.5 155.5s107.5 49.5 183.5 49.5c17.333 0 33.833 -1.66699 49.5 -5
s28.5 -7.66602 38.5 -12.999zM377 -113.001l-238 -319l-81 57l200 342z" />
    <glyph glyph-name="Rcaron" unicode="&#x158;" horiz-adv-x="1112" 
d="M809 1116c0 86 -27.333 148.833 -82 188.5s-140.667 59.5 -258 59.5h-133v-481h133c118.667 0 205 18.333 259 55s81 96 81 178zM1079 0h-233l-455 721h-55v-721h-193v1544h349c165.333 0 291.5 -36 378.5 -108s130.5 -175.333 130.5 -310c0 -120 -36 -215.333 -108 -286
s-170.333 -107.667 -295 -111zM848 1942l-291 -291l-290 291l59 74l231 -191l232 191z" />
    <glyph glyph-name="rcaron" unicode="&#x159;" horiz-adv-x="719" 
d="M702 973l-38 -185.001c-13.333 8.66699 -27.5 15 -42.5 19s-30.5 6 -46.5 6c-81.333 0 -142.833 -33.5 -184.5 -100.5s-62.5 -166.5 -62.5 -298.5v-414h-185v958h185v-172c22 70.667 56.167 122.5 102.5 155.5s107.5 49.5 183.5 49.5c17.333 0 33.833 -1.66699 49.5 -5
s28.5 -7.66602 38.5 -12.999zM651 1356l-291 -291l-290 291l59 74l231 -191l232 191z" />
    <glyph glyph-name="Sacute" unicode="&#x15a;" horiz-adv-x="1100" 
d="M993 412c0 -138.667 -42.6689 -247.5 -128.002 -326.5s-203 -118.5 -353 -118.5c-104 0 -194.5 22.667 -271.5 68s-133.167 109.333 -168.5 192l133 121c23.333 -62.667 63 -111.834 119 -147.501s120.667 -53.5 194 -53.5c90 0 159.667 22.333 209 67s74 107.667 74 189
c0 67.333 -24.333 126.5 -73 177.5s-130.334 105.167 -245.001 162.5c-133.333 67.333 -226.666 133.666 -279.999 198.999s-80 147.333 -80 246c0 116.667 39.333 210.667 118 282s183.334 107 314.001 107c80.667 0 151.167 -15.333 211.5 -46s110.833 -76.667 151.5 -138
l-127 -125c-23.333 40.667 -56.333 72.334 -99 95.001s-90.334 34 -143.001 34c-72 0 -129 -18 -171 -54s-63 -84.333 -63 -145c0 -56.667 16.833 -105.167 50.5 -145.5s100.834 -87.5 201.501 -141.5c176.667 -95.333 291.834 -178.166 345.501 -248.499
s80.5 -153.833 80.5 -250.5zM797.998 1921l-307 -260l-65 74l282 295z" />
    <glyph glyph-name="sacute" unicode="&#x15b;" horiz-adv-x="786" 
d="M735 260c0 -90 -32.501 -161.334 -97.501 -214.001s-153.833 -79 -266.5 -79c-86 0 -158.5 17.167 -217.5 51.5s-101.833 84.166 -128.5 149.499l155 98c17.333 -44.667 42.5 -78.334 75.5 -101.001s74.167 -34 123.5 -34c53.333 0 95.333 10.5 126 31.5
s46 50.167 46 87.5c0 41.333 -15 73.333 -45 96s-86.667 49.334 -170 80.001c-88.667 32 -154.5 71.833 -197.5 119.5s-64.5 104.834 -64.5 171.501c0 85.333 28.667 152.333 86 201s137 73 239 73c74 0 135.833 -15.167 185.5 -45.5s88.834 -77.166 117.501 -140.499
l-149 -92c-17.333 40 -38.833 69 -64.5 87s-57.5 27 -95.5 27c-44.667 0 -79 -9 -103 -27s-36 -43.667 -36 -77c0 -36 13.167 -65.5 39.5 -88.5s75.833 -46.833 148.5 -71.5c103.333 -33.333 178 -73.833 224 -121.5s69 -108.167 69 -181.5zM640.999 1335l-307 -260l-65 74
l282 295z" />
    <glyph glyph-name="Scircumflex" unicode="&#x15c;" horiz-adv-x="1100" 
d="M993 412c0 -138.667 -42.6689 -247.5 -128.002 -326.5s-203 -118.5 -353 -118.5c-104 0 -194.5 22.667 -271.5 68s-133.167 109.333 -168.5 192l133 121c23.333 -62.667 63 -111.834 119 -147.501s120.667 -53.5 194 -53.5c90 0 159.667 22.333 209 67s74 107.667 74 189
c0 67.333 -24.333 126.5 -73 177.5s-130.334 105.167 -245.001 162.5c-133.333 67.333 -226.666 133.666 -279.999 198.999s-80 147.333 -80 246c0 116.667 39.333 210.667 118 282s183.334 107 314.001 107c80.667 0 151.167 -15.333 211.5 -46s110.833 -76.667 151.5 -138
l-127 -125c-23.333 40.667 -56.333 72.334 -99 95.001s-90.334 34 -143.001 34c-72 0 -129 -18 -171 -54s-63 -84.333 -63 -145c0 -56.667 16.833 -105.167 50.5 -145.5s100.834 -87.5 201.501 -141.5c176.667 -95.333 291.834 -178.166 345.501 -248.499
s80.5 -153.833 80.5 -250.5zM841.998 1737l-59 -76l-232 191l-231 -191l-60 76l291 289z" />
    <glyph glyph-name="scircumflex" unicode="&#x15d;" horiz-adv-x="786" 
d="M735 260c0 -90 -32.501 -161.334 -97.501 -214.001s-153.833 -79 -266.5 -79c-86 0 -158.5 17.167 -217.5 51.5s-101.833 84.166 -128.5 149.499l155 98c17.333 -44.667 42.5 -78.334 75.5 -101.001s74.167 -34 123.5 -34c53.333 0 95.333 10.5 126 31.5
s46 50.167 46 87.5c0 41.333 -15 73.333 -45 96s-86.667 49.334 -170 80.001c-88.667 32 -154.5 71.833 -197.5 119.5s-64.5 104.834 -64.5 171.501c0 85.333 28.667 152.333 86 201s137 73 239 73c74 0 135.833 -15.167 185.5 -45.5s88.834 -77.166 117.501 -140.499
l-149 -92c-17.333 40 -38.833 69 -64.5 87s-57.5 27 -95.5 27c-44.667 0 -79 -9 -103 -27s-36 -43.667 -36 -77c0 -36 13.167 -65.5 39.5 -88.5s75.833 -46.833 148.5 -71.5c103.333 -33.333 178 -73.833 224 -121.5s69 -108.167 69 -181.5zM683.999 1151l-59 -76l-232 191
l-231 -191l-60 76l291 289z" />
    <glyph glyph-name="Scedilla" unicode="&#x15e;" horiz-adv-x="1100" 
d="M993 412c0 -138.667 -42.6689 -247.5 -128.002 -326.5s-203 -118.5 -353 -118.5c-104 0 -194.5 22.667 -271.5 68s-133.167 109.333 -168.5 192l133 121c23.333 -62.667 63 -111.834 119 -147.501s120.667 -53.5 194 -53.5c90 0 159.667 22.333 209 67s74 107.667 74 189
c0 67.333 -24.333 126.5 -73 177.5s-130.334 105.167 -245.001 162.5c-133.333 67.333 -226.666 133.666 -279.999 198.999s-80 147.333 -80 246c0 116.667 39.333 210.667 118 282s183.334 107 314.001 107c80.667 0 151.167 -15.333 211.5 -46s110.833 -76.667 151.5 -138
l-127 -125c-23.333 40.667 -56.333 72.334 -99 95.001s-90.334 34 -143.001 34c-72 0 -129 -18 -171 -54s-63 -84.333 -63 -145c0 -56.667 16.833 -105.167 50.5 -145.5s100.834 -87.5 201.501 -141.5c176.667 -95.333 291.834 -178.166 345.501 -248.499
s80.5 -153.833 80.5 -250.5zM681.998 -113l-238 -319l-81 57l200 342z" />
    <glyph glyph-name="scedilla" unicode="&#x15f;" horiz-adv-x="786" 
d="M735 260c0 -90 -32.501 -161.334 -97.501 -214.001s-153.833 -79 -266.5 -79c-86 0 -158.5 17.167 -217.5 51.5s-101.833 84.166 -128.5 149.499l155 98c17.333 -44.667 42.5 -78.334 75.5 -101.001s74.167 -34 123.5 -34c53.333 0 95.333 10.5 126 31.5
s46 50.167 46 87.5c0 41.333 -15 73.333 -45 96s-86.667 49.334 -170 80.001c-88.667 32 -154.5 71.833 -197.5 119.5s-64.5 104.834 -64.5 171.501c0 85.333 28.667 152.333 86 201s137 73 239 73c74 0 135.833 -15.167 185.5 -45.5s88.834 -77.166 117.501 -140.499
l-149 -92c-17.333 40 -38.833 69 -64.5 87s-57.5 27 -95.5 27c-44.667 0 -79 -9 -103 -27s-36 -43.667 -36 -77c0 -36 13.167 -65.5 39.5 -88.5s75.833 -46.833 148.5 -71.5c103.333 -33.333 178 -73.833 224 -121.5s69 -108.167 69 -181.5zM523.999 -113.001l-238 -319
l-81 57l200 342z" />
    <glyph glyph-name="Scaron" unicode="&#x160;" horiz-adv-x="1100" 
d="M993 412c0 -138.667 -42.6689 -247.5 -128.002 -326.5s-203 -118.5 -353 -118.5c-104 0 -194.5 22.667 -271.5 68s-133.167 109.333 -168.5 192l133 121c23.333 -62.667 63 -111.834 119 -147.501s120.667 -53.5 194 -53.5c90 0 159.667 22.333 209 67s74 107.667 74 189
c0 67.333 -24.333 126.5 -73 177.5s-130.334 105.167 -245.001 162.5c-133.333 67.333 -226.666 133.666 -279.999 198.999s-80 147.333 -80 246c0 116.667 39.333 210.667 118 282s183.334 107 314.001 107c80.667 0 151.167 -15.333 211.5 -46s110.833 -76.667 151.5 -138
l-127 -125c-23.333 40.667 -56.333 72.334 -99 95.001s-90.334 34 -143.001 34c-72 0 -129 -18 -171 -54s-63 -84.333 -63 -145c0 -56.667 16.833 -105.167 50.5 -145.5s100.834 -87.5 201.501 -141.5c176.667 -95.333 291.834 -178.166 345.501 -248.499
s80.5 -153.833 80.5 -250.5zM841.998 1942l-291 -291l-290 291l59 74l231 -191l232 191z" />
    <glyph glyph-name="scaron" unicode="&#x161;" horiz-adv-x="786" 
d="M735 260c0 -90 -32.501 -161.334 -97.501 -214.001s-153.833 -79 -266.5 -79c-86 0 -158.5 17.167 -217.5 51.5s-101.833 84.166 -128.5 149.499l155 98c17.333 -44.667 42.5 -78.334 75.5 -101.001s74.167 -34 123.5 -34c53.333 0 95.333 10.5 126 31.5
s46 50.167 46 87.5c0 41.333 -15 73.333 -45 96s-86.667 49.334 -170 80.001c-88.667 32 -154.5 71.833 -197.5 119.5s-64.5 104.834 -64.5 171.501c0 85.333 28.667 152.333 86 201s137 73 239 73c74 0 135.833 -15.167 185.5 -45.5s88.834 -77.166 117.501 -140.499
l-149 -92c-17.333 40 -38.833 69 -64.5 87s-57.5 27 -95.5 27c-44.667 0 -79 -9 -103 -27s-36 -43.667 -36 -77c0 -36 13.167 -65.5 39.5 -88.5s75.833 -46.833 148.5 -71.5c103.333 -33.333 178 -73.833 224 -121.5s69 -108.167 69 -181.5zM683.999 1356l-291 -291
l-290 291l59 74l231 -191l232 191z" />
    <glyph glyph-name="Tcedilla" unicode="&#x162;" horiz-adv-x="934" 
d="M913 1372h-350v-1372h-192v1372h-351v172h893v-172zM598 -113l-238 -319l-81 57l200 342z" />
    <glyph glyph-name="tcedilla" unicode="&#x163;" horiz-adv-x="492" 
d="M492 795h-164v-795h-185v795h-102v163h102v383h185v-383h164v-163zM377 -113l-238 -319l-81 57l200 342z" />
    <glyph glyph-name="Tcaron" unicode="&#x164;" horiz-adv-x="934" 
d="M913 1372h-350v-1372h-192v1372h-351v172h893v-172zM758 1942l-291 -291l-290 291l59 74l231 -191l232 191z" />
    <glyph glyph-name="tcaron" unicode="&#x165;" horiz-adv-x="741" 
d="M492 795h-164v-795h-185v795h-102v163h102v383h185v-383h164v-163zM782 1499l-239 -463l-113 43l166 498z" />
    <glyph glyph-name="Utilde" unicode="&#x168;" horiz-adv-x="1370" 
d="M1227 580c0 -206 -44.666 -359.667 -133.999 -461s-225 -152 -407 -152c-180.667 0 -316.334 51.333 -407.001 154s-136 255.667 -136 459v964h193v-1003c0 -132 29 -230.667 87 -296s145.667 -98 263 -98c118 0 205.5 32.333 262.5 97s85.5 163.667 85.5 297v1003h193
v-964zM1022 1868c-21.333 -54 -49.168 -94.832 -83.501 -122.499s-73.5 -41.5 -117.5 -41.5c-22 0 -45 4.33301 -69 13s-51 22.334 -81 41.001l-11 7c-53.333 33.333 -91 50 -113 50c-26 0 -47.5 -6.33301 -64.5 -19s-33.833 -36.334 -50.5 -71.001l-80 49
c22.667 54 50.5 94.5 83.5 121.5s71.5 40.5 115.5 40.5c22 0 45 -4.33301 69 -13s51 -22.334 81 -41.001v0c58.667 -38 100.334 -57 125.001 -57c26 0 47.333 6 64 18s34 36 52 72z" />
    <glyph glyph-name="utilde" unicode="&#x169;" horiz-adv-x="1049" 
d="M920 418c0 -153.333 -32.332 -266.833 -96.999 -340.5s-164.334 -110.5 -299.001 -110.5c-136.667 0 -236.667 36.167 -300 108.5s-95 186.5 -95 342.5v540h184v-540c0 -96.667 16 -166.667 48 -210s86.333 -65 163 -65c76 0 130.167 21.667 162.5 65
s48.5 113.333 48.5 210v540h185v-540zM860.001 1282c-21.333 -54 -49.168 -94.832 -83.501 -122.499s-73.5 -41.5 -117.5 -41.5c-22 0 -45 4.33301 -69 13s-51 22.334 -81 41.001l-11 7c-53.333 33.333 -91 50 -113 50c-26 0 -47.5 -6.33301 -64.5 -19
s-33.833 -36.334 -50.5 -71.001l-80 49c22.667 54 50.5 94.5 83.5 121.5s71.5 40.5 115.5 40.5c22 0 45 -4.33301 69 -13s51 -22.334 81 -41.001v0c58.667 -38 100.334 -57 125.001 -57c26 0 47.333 6 64 18s34 36 52 72z" />
    <glyph glyph-name="Umacron" unicode="&#x16a;" horiz-adv-x="1370" 
d="M1227 580c0 -206 -44.666 -359.667 -133.999 -461s-225 -152 -407 -152c-180.667 0 -316.334 51.333 -407.001 154s-136 255.667 -136 459v964h193v-1003c0 -132 29 -230.667 87 -296s145.667 -98 263 -98c118 0 205.5 32.333 262.5 97s85.5 163.667 85.5 297v1003h193
v-964zM962.001 1755h-552v125h552v-125z" />
    <glyph glyph-name="umacron" unicode="&#x16b;" horiz-adv-x="1049" 
d="M920 418c0 -153.333 -32.332 -266.833 -96.999 -340.5s-164.334 -110.5 -299.001 -110.5c-136.667 0 -236.667 36.167 -300 108.5s-95 186.5 -95 342.5v540h184v-540c0 -96.667 16 -166.667 48 -210s86.333 -65 163 -65c76 0 130.167 21.667 162.5 65
s48.5 113.333 48.5 210v540h185v-540zM800.001 1169h-552v125h552v-125z" />
    <glyph glyph-name="Ubreve" unicode="&#x16c;" horiz-adv-x="1370" 
d="M1227 580c0 -206 -44.666 -359.667 -133.999 -461s-225 -152 -407 -152c-180.667 0 -316.334 51.333 -407.001 154s-136 255.667 -136 459v964h193v-1003c0 -132 29 -230.667 87 -296s145.667 -98 263 -98c118 0 205.5 32.333 262.5 97s85.5 163.667 85.5 297v1003h193
v-964zM981.001 1942c-18.667 -86 -52.001 -149.5 -100.001 -190.5s-112.333 -61.5 -193 -61.5c-82.667 0 -149.167 21.5 -199.5 64.5s-82.166 105.5 -95.499 187.5l88 30c12.667 -51.333 36.667 -90.333 72 -117s80.333 -40 135 -40c54 0 98 13.167 132 39.5
s57.667 65.5 71 117.5z" />
    <glyph glyph-name="ubreve" unicode="&#x16d;" horiz-adv-x="1049" 
d="M920 418c0 -153.333 -32.332 -266.833 -96.999 -340.5s-164.334 -110.5 -299.001 -110.5c-136.667 0 -236.667 36.167 -300 108.5s-95 186.5 -95 342.5v540h184v-540c0 -96.667 16 -166.667 48 -210s86.333 -65 163 -65c76 0 130.167 21.667 162.5 65
s48.5 113.333 48.5 210v540h185v-540zM820.001 1356c-18.667 -86 -52.001 -149.5 -100.001 -190.5s-112.333 -61.5 -193 -61.5c-82.667 0 -149.167 21.5 -199.5 64.5s-82.166 105.5 -95.499 187.5l88 30c12.667 -51.333 36.667 -90.333 72 -117s80.333 -40 135 -40
c54 0 98 13.167 132 39.5s57.667 65.5 71 117.5z" />
    <glyph glyph-name="Uring" unicode="&#x16e;" horiz-adv-x="1370" 
d="M1227 580c0 -206 -44.666 -359.667 -133.999 -461s-225 -152 -407 -152c-180.667 0 -316.334 51.333 -407.001 154s-136 255.667 -136 459v964h193v-1003c0 -132 29 -230.667 87 -296s145.667 -98 263 -98c118 0 205.5 32.333 262.5 97s85.5 163.667 85.5 297v1003h193
v-964zM831.001 1880c0 40.667 -14.333 75.5 -43 104.5s-62.667 43.5 -102 43.5c-40.667 0 -75.167 -14.5 -103.5 -43.5s-42.5 -63.833 -42.5 -104.5c0 -40 14.167 -74.167 42.5 -102.5s62.833 -42.5 103.5 -42.5c40 0 74.167 14.167 102.5 42.5s42.5 62.5 42.5 102.5z
M923.001 1880c0 -65.333 -23.167 -121.166 -69.5 -167.499s-102.166 -69.5 -167.499 -69.5s-121 23.167 -167 69.5s-69 102.166 -69 167.499c0 66 23 122.167 69 168.5s101.667 69.5 167 69.5s121.166 -23.167 167.499 -69.5s69.5 -102.5 69.5 -168.5z" />
    <glyph glyph-name="uring" unicode="&#x16f;" horiz-adv-x="1049" 
d="M920 418c0 -153.333 -32.332 -266.833 -96.999 -340.5s-164.334 -110.5 -299.001 -110.5c-136.667 0 -236.667 36.167 -300 108.5s-95 186.5 -95 342.5v540h184v-540c0 -96.667 16 -166.667 48 -210s86.333 -65 163 -65c76 0 130.167 21.667 162.5 65
s48.5 113.333 48.5 210v540h185v-540zM670.001 1294c0 40.667 -14.333 75.5 -43 104.5s-62.667 43.5 -102 43.5c-40.667 0 -75.167 -14.5 -103.5 -43.5s-42.5 -63.833 -42.5 -104.5c0 -40 14.167 -74.167 42.5 -102.5s62.833 -42.5 103.5 -42.5
c40 0 74.167 14.167 102.5 42.5s42.5 62.5 42.5 102.5zM762.001 1294c0 -65.333 -23.167 -121.166 -69.5 -167.499s-102.166 -69.5 -167.499 -69.5s-121 23.167 -167 69.5s-69 102.166 -69 167.499c0 66 23 122.167 69 168.5s101.667 69.5 167 69.5
s121.166 -23.167 167.499 -69.5s69.5 -102.5 69.5 -168.5z" />
    <glyph glyph-name="Udblacute" unicode="&#x170;" horiz-adv-x="1370" 
d="M1227 580c0 -206 -44.666 -359.667 -133.999 -461s-225 -152 -407 -152c-180.667 0 -316.334 51.333 -407.001 154s-136 255.667 -136 459v964h193v-1003c0 -132 29 -230.667 87 -296s145.667 -98 263 -98c118 0 205.5 32.333 262.5 97s85.5 163.667 85.5 297v1003h193
v-964zM735.001 1960l-213 -299l-81 51l176 318zM996.001 1942l-244 -281l-74 64l211 305z" />
    <glyph glyph-name="udblacute" unicode="&#x171;" horiz-adv-x="1049" 
d="M920 418c0 -153.333 -32.332 -266.833 -96.999 -340.5s-164.334 -110.5 -299.001 -110.5c-136.667 0 -236.667 36.167 -300 108.5s-95 186.5 -95 342.5v540h184v-540c0 -96.667 16 -166.667 48 -210s86.333 -65 163 -65c76 0 130.167 21.667 162.5 65
s48.5 113.333 48.5 210v540h185v-540zM573.001 1374l-213 -299l-81 51l176 318zM834.001 1356l-244 -281l-74 64l211 305z" />
    <glyph glyph-name="Uogonek" unicode="&#x172;" horiz-adv-x="1370" 
d="M1227 580c0 -189.333 -37.834 -334.501 -113.501 -435.501s-190.167 -158.833 -343.5 -173.5c-29.333 -33.333 -52 -67.5 -68 -102.5s-24 -67.5 -24 -97.5c0 -40 12.167 -68.5 36.5 -85.5s64.833 -25.5 121.5 -25.5v-125c-105.333 0 -180.166 14.833 -224.499 44.5
s-66.5 79.834 -66.5 150.501c0 37.333 10.5 76.833 31.5 118.5s50.167 81.167 87.5 118.5c-172.667 4 -302.667 57.333 -390 160s-131 253.667 -131 453v964h193v-1003c0 -132 29 -230.667 87 -296s145.667 -98 263 -98c118 0 205.5 32.333 262.5 97s85.5 163.667 85.5 297
v1003h193v-964z" />
    <glyph glyph-name="uogonek" unicode="&#x173;" horiz-adv-x="1049" 
d="M920 418c0 -136.667 -25.501 -241.499 -76.501 -314.499s-129.5 -116.5 -235.5 -130.5c-29.333 -32.667 -52.333 -66.834 -69 -102.501s-25 -68.834 -25 -99.501c0 -40 12.167 -68.5 36.5 -85.5s64.833 -25.5 121.5 -25.5v-125c-105.333 0 -180.166 14.833 -224.499 44.5
s-66.5 79.834 -66.5 150.501c0 37.333 10.5 76.833 31.5 118.5s50.167 81.167 87.5 118.5c-128 4 -221.833 42.333 -281.5 115s-89.5 184.667 -89.5 336v540h184v-540c0 -96.667 16 -166.667 48 -210s86.333 -65 163 -65c76 0 130.167 21.667 162.5 65
s48.5 113.333 48.5 210v540h185v-540z" />
    <glyph glyph-name="Wcircumflex" unicode="&#x174;" horiz-adv-x="2103" 
d="M2114 1544l-627 -1589l-434 1135l-441 -1135l-622 1589h203l423 -1118l435 1163l432 -1163l428 1118h203zM1343 1737l-59 -76l-232 191l-231 -191l-60 76l291 289z" />
    <glyph glyph-name="wcircumflex" unicode="&#x175;" horiz-adv-x="1470" 
d="M1481 958l-465 -1003l-279 647l-280 -647l-467 1003h209l258 -608l276 656l283 -656l254 608h211zM1026 1151l-59 -76l-232 191l-231 -191l-60 76l291 289z" />
    <glyph glyph-name="Ycircumflex" unicode="&#x176;" horiz-adv-x="1174" 
d="M1167 1544l-481 -839v-705h-192v705l-488 839h217l371 -665l358 665h215zM878 1737l-59 -76l-232 191l-231 -191l-60 76l291 289z" />
    <glyph glyph-name="ycircumflex" unicode="&#x177;" horiz-adv-x="991" 
d="M983 958l-612 -1490h-203l244 573l-404 917h201l297 -706l274 706h203zM786 1151l-59 -76l-232 191l-231 -191l-60 76l291 289z" />
    <glyph glyph-name="Ydieresis" unicode="&#x178;" horiz-adv-x="1174" 
d="M1167 1544l-481 -839v-705h-192v705l-488 839h217l371 -665l358 665h215zM495 1825c0 -29.333 -9.83398 -53.666 -29.501 -72.999s-43.834 -29 -72.501 -29c-29.333 0 -54.166 9.83301 -74.499 29.5s-30.5 43.834 -30.5 72.501c0 27.333 10.5 51.166 31.5 71.499
s45.5 30.5 73.5 30.5c28.667 0 52.834 -9.83301 72.501 -29.5s29.5 -43.834 29.5 -72.501zM885.999 1825c0 -29.333 -9.66992 -53.666 -29.0029 -72.999s-43.666 -29 -72.999 -29s-54.166 9.83301 -74.499 29.5s-30.5 43.834 -30.5 72.501c0 27.333 10.5 51.166 31.5 71.499
s45.5 30.5 73.5 30.5c28.667 0 52.834 -9.83301 72.501 -29.5s29.5 -43.834 29.5 -72.501z" />
    <glyph glyph-name="Zacute" unicode="&#x179;" horiz-adv-x="1130" 
d="M1102 1544l-797 -1364h754v-180h-1069l801 1364h-711v180h1022zM813 1921l-307 -260l-65 74l282 295z" />
    <glyph glyph-name="zacute" unicode="&#x17a;" horiz-adv-x="1014" 
d="M926 0h-893l559 795h-508v163h838l-557 -794h561v-164zM755 1335l-307 -260l-65 74l282 295z" />
    <glyph glyph-name="Zdot" unicode="&#x17b;" horiz-adv-x="1130" 
d="M1102 1544l-797 -1364h754v-180h-1069l801 1364h-711v180h1022zM672 1827c0 -30.667 -10 -56 -30 -76s-45.333 -30 -76 -30c-30 0 -55.333 10.333 -76 31s-31 45.667 -31 75c0 28.667 10.667 53.667 32 75s46.333 32 75 32c29.333 0 54.333 -10.333 75 -31s31 -46 31 -76
z" />
    <glyph glyph-name="zdot" unicode="&#x17c;" horiz-adv-x="1014" 
d="M926 0h-893l559 795h-508v163h838l-557 -794h561v-164zM614 1241c0 -30.667 -10 -56 -30 -76s-45.333 -30 -76 -30c-30 0 -55.333 10.333 -76 31s-31 45.667 -31 75c0 28.667 10.667 53.667 32 75s46.333 32 75 32c29.333 0 54.333 -10.333 75 -31s31 -46 31 -76z" />
    <glyph glyph-name="Zcaron" unicode="&#x17d;" horiz-adv-x="1130" 
d="M1102 1544l-797 -1364h754v-180h-1069l801 1364h-711v180h1022zM856 1942l-291 -291l-290 291l59 74l231 -191l232 191z" />
    <glyph glyph-name="zcaron" unicode="&#x17e;" horiz-adv-x="1014" 
d="M926 0h-893l559 795h-508v163h838l-557 -794h561v-164zM799 1356l-291 -291l-290 291l59 74l231 -191l232 191z" />
    <glyph glyph-name="florin" unicode="&#x192;" 
d="M1018 1544l-28.9961 -174c-22.667 10.667 -43.334 18.5 -62.001 23.5s-34.667 7.5 -48 7.5c-54.667 0 -93.834 -17.167 -117.501 -51.5s-40.5 -94.5 -50.5 -180.5l-25 -211h221l-20 -163h-221l-78 -695c-14.667 -133.333 -48 -230.833 -100 -292.5
s-127.333 -92.5 -226 -92.5c-26 0 -53.667 3 -83 9s-56.333 14 -81 24l27 174c23.333 -10 44.166 -17.667 62.499 -23s34.5 -8 48.5 -8c54.667 0 94 17.5 118 52.5s40.333 94.833 49 179.5l76 672h-211l21 163h211l26 234c14.667 130.667 48.667 227.5 102 290.5
s128.666 94.5 225.999 94.5c26 0 53.833 -3 83.5 -9s56.5 -14 80.5 -24z" />
    <glyph glyph-name="circumflex" unicode="&#x2c6;" horiz-adv-x="963" 
d="M772 1151l-59 -76l-232 191l-231 -191l-60 76l291 289z" />
    <glyph glyph-name="caron" unicode="&#x2c7;" horiz-adv-x="967" 
d="M774 1356l-291 -291l-290 291l59 74l231 -191l232 191z" />
    <glyph glyph-name="macron" unicode="&#x2c9;" horiz-adv-x="1024" 
d="M788 1169h-552v125h552v-125z" />
    <glyph glyph-name="breve" unicode="&#x2d8;" horiz-adv-x="1004" 
d="M797 1356c-18.667 -86 -52.001 -149.5 -100.001 -190.5s-112.333 -61.5 -193 -61.5c-82.667 0 -149.167 21.5 -199.5 64.5s-82.166 105.5 -95.499 187.5l88 30c12.667 -51.333 36.667 -90.333 72 -117s80.333 -40 135 -40c54 0 98 13.167 132 39.5s57.667 65.5 71 117.5z
" />
    <glyph glyph-name="dotaccent" unicode="&#x2d9;" horiz-adv-x="737" 
d="M475 1241c0 -30.667 -10 -56 -30 -76s-45.333 -30 -76 -30c-30 0 -55.333 10.333 -76 31s-31 45.667 -31 75c0 28.667 10.667 53.667 32 75s46.333 32 75 32c29.333 0 54.333 -10.333 75 -31s31 -46 31 -76z" />
    <glyph glyph-name="ring" unicode="&#x2da;" horiz-adv-x="737" 
d="M514 1294c0 40.667 -14.333 75.5 -43 104.5s-62.667 43.5 -102 43.5c-40.667 0 -75.167 -14.5 -103.5 -43.5s-42.5 -63.833 -42.5 -104.5c0 -40 14.167 -74.167 42.5 -102.5s62.833 -42.5 103.5 -42.5c40 0 74.167 14.167 102.5 42.5s42.5 62.5 42.5 102.5zM606 1294
c0 -65.333 -23.167 -121.166 -69.5 -167.499s-102.166 -69.5 -167.499 -69.5s-121 23.167 -167 69.5s-69 102.166 -69 167.499c0 66 23 122.167 69 168.5s101.667 69.5 167 69.5s121.166 -23.167 167.499 -69.5s69.5 -102.5 69.5 -168.5z" />
    <glyph glyph-name="ogonek" unicode="&#x2db;" horiz-adv-x="696" 
d="M467 -465c-105.333 0 -180.167 14.832 -224.5 44.499s-66.5 79.834 -66.5 150.501c0 43.333 13.667 89.166 41 137.499s65 92.5 113 132.5h100c-37.333 -34.667 -66.833 -72.667 -88.5 -114s-32.5 -79.666 -32.5 -114.999c0 -40 12.167 -68.5 36.5 -85.5
s64.833 -25.5 121.5 -25.5v-125z" />
    <glyph glyph-name="tilde" unicode="&#x2dc;" horiz-adv-x="1044" 
d="M858 1282c-21.333 -54 -49.168 -94.832 -83.501 -122.499s-73.5 -41.5 -117.5 -41.5c-22 0 -45 4.33301 -69 13s-51 22.334 -81 41.001l-11 7c-53.333 33.333 -91 50 -113 50c-26 0 -47.5 -6.33301 -64.5 -19s-33.833 -36.334 -50.5 -71.001l-80 49
c22.667 54 50.5 94.5 83.5 121.5s71.5 40.5 115.5 40.5c22 0 45 -4.33301 69 -13s51 -22.334 81 -41.001v0c58.667 -38 100.334 -57 125.001 -57c26 0 47.333 6 64 18s34 36 52 72z" />
    <glyph glyph-name="hungarumlaut" unicode="&#x2dd;" horiz-adv-x="963" 
d="M530 1374l-213 -299l-81 51l176 318zM791 1356l-244 -281l-74 64l211 305z" />
    <glyph glyph-name="U037e" unicode="&#x37e;" horiz-adv-x="592" 
d="M436 174l-266 -528l-113 43l193 563zM449 864c0 -34.667 -12.333 -64.167 -37 -88.5s-54.667 -36.5 -90 -36.5c-36 0 -66.167 12.167 -90.5 36.5s-36.5 53.833 -36.5 88.5c0 35.333 12.333 65.333 37 90s54.667 37 90 37c34.667 0 64.5 -12.333 89.5 -37
s37.5 -54.667 37.5 -90z" />
    <glyph glyph-name="tonos" unicode="&#x384;" horiz-adv-x="410" 
d="M274 1485l-20 -410h-98l-21 410h139z" />
    <glyph glyph-name="dieresistonos" unicode="&#x385;" horiz-adv-x="963" 
d="M342 1239c0 -29.333 -9.66895 -53.666 -29.002 -72.999s-43.666 -29 -72.999 -29c-30 0 -55 9.83301 -75 29.5s-30 43.834 -30 72.501c0 27.333 10.5 51.166 31.5 71.499s45.5 30.5 73.5 30.5c28.667 0 52.834 -9.83301 72.501 -29.5s29.5 -43.834 29.5 -72.501z
M550.998 1485l-21 -410h-98l-20 410h139zM826.998 1239c0 -29.333 -9.66895 -53.666 -29.002 -72.999s-43.666 -29 -72.999 -29s-54 9.83301 -74 29.5s-30 43.834 -30 72.501c0 27.333 10.333 51.166 31 71.499s45 30.5 73 30.5c28.667 0 52.834 -9.83301 72.501 -29.5
s29.5 -43.834 29.5 -72.501z" />
    <glyph glyph-name="Alphatonos" unicode="&#x386;" horiz-adv-x="1968" 
d="M274 1485l-20 -410h-98l-21 410h139zM1497 610l-248 561l-248 -561h496zM1978 0h-213l-197 446h-641l-196 -446h-213l731 1589z" />
    <glyph glyph-name="anoteleia" unicode="&#x387;" horiz-adv-x="592" 
d="M424 788c0 -34.667 -12.333 -64.334 -37 -89.001s-54.667 -37 -90 -37s-65.333 12.333 -90 37s-37 54.334 -37 89.001c0 36 12.333 66.167 37 90.5s54.667 36.5 90 36.5s65.333 -12.167 90 -36.5s37 -54.5 37 -90.5z" />
    <glyph glyph-name="Epsilontonos" unicode="&#x388;" horiz-adv-x="1477" 
d="M274 1485l-20 -410h-98l-21 410h139zM1364 0h-811v1544h811v-180h-618v-451h618v-180h-618v-553h618v-180z" />
    <glyph glyph-name="Etatonos" unicode="&#x389;" horiz-adv-x="1792" 
d="M274 1485l-20 -410h-98l-21 410h139zM1649 0h-192v733h-711v-733h-193v1544h193v-631h711v631h192v-1544z" />
    <glyph glyph-name="Iotatonos" unicode="&#x38a;" horiz-adv-x="885" 
d="M274 1485l-20 -410h-98l-21 410h139zM744 0h-193v1544h193v-1544z" />
    <glyph glyph-name="Omicrontonos" unicode="&#x38c;" horiz-adv-x="2134" 
d="M274 1485l-20 -410h-98l-21 410h139zM1880 772c0 174.667 -57.3311 322.5 -171.998 443.5s-255.334 181.5 -422.001 181.5c-180.667 0 -324.834 -61.5 -432.501 -184.5s-161.5 -269.833 -161.5 -440.5c0 -174 57.167 -321.667 171.5 -443s255.166 -182 422.499 -182
c166.667 0 307.334 60.667 422.001 182s172 269 172 443zM2072 772c0 -225.333 -76.167 -415.833 -228.5 -571.5s-338.166 -233.5 -557.499 -233.5c-218 0 -403.667 78.167 -557 234.5s-230 346.5 -230 570.5c0 227.333 75.833 418.333 227.5 573s338.167 232 559.5 232
s407.666 -77.333 558.999 -232s227 -345.667 227 -573z" />
    <glyph glyph-name="Upsilontonos" unicode="&#x38e;" horiz-adv-x="1583" 
d="M274 1485l-20 -410h-98l-21 410h139zM1577 1544l-481 -839v-705h-192v705l-488 839h217l371 -665l358 665h215z" />
    <glyph glyph-name="Omegatonos" unicode="&#x38f;" horiz-adv-x="2130" 
d="M274 1485l-20 -410h-98l-21 410h139zM2099 0h-626.998v180c120 42.667 216.667 118.167 290 226.5s110 230.166 110 365.499c0 174.667 -56.833 322.5 -170.5 443.5s-253.5 181.5 -419.5 181.5c-180 0 -323.333 -61.167 -430 -183.5s-160 -269.5 -160 -441.5
c0 -135.333 36.667 -257.166 110 -365.499s169.666 -183.833 288.999 -226.5v-180h-626v180h323c-94 68 -166.333 153 -217 255s-76 214.333 -76 337c0 227.333 75.833 418.333 227.5 573s338.167 232 559.5 232s407.666 -77.333 558.999 -232s227 -345.667 227 -573
c0 -122.667 -25.167 -235 -75.5 -337s-122.833 -187 -217.5 -255h324v-180z" />
    <glyph glyph-name="iotedieresistonos" unicode="&#x390;" horiz-adv-x="520" 
d="M352 0h-184v958h184v-958zM121 1239c0 -29.333 -9.66895 -53.666 -29.002 -72.999s-43.666 -29 -72.999 -29c-30 0 -55 9.83301 -75 29.5s-30 43.834 -30 72.501c0 27.333 10.5 51.166 31.5 71.499s45.5 30.5 73.5 30.5c28.667 0 52.834 -9.83301 72.501 -29.5
s29.5 -43.834 29.5 -72.501zM329.998 1485l-21 -410h-98l-20 410h139zM605.998 1239c0 -29.333 -9.66895 -53.666 -29.002 -72.999s-43.666 -29 -72.999 -29s-54 9.83301 -74 29.5s-30 43.834 -30 72.501c0 27.333 10.333 51.166 31 71.499s45 30.5 73 30.5
c28.667 0 52.834 -9.83301 72.501 -29.5s29.5 -43.834 29.5 -72.501z" />
    <glyph glyph-name="Alpha" unicode="&#x391;" horiz-adv-x="1440" 
d="M969 610l-248 561l-248 -561h496zM1450 0h-213l-197 446h-641l-196 -446h-213l731 1589z" />
    <glyph glyph-name="Beta" unicode="&#x392;" horiz-adv-x="1096" 
d="M821 442c0 92 -31.167 162.167 -93.5 210.5s-153.166 72.5 -272.499 72.5h-119v-549h137c123.333 0 212.166 21.5 266.499 64.5s81.5 110.167 81.5 201.5zM711 1128c0 83.333 -21.5 144.167 -64.5 182.5s-109.833 57.5 -200.5 57.5h-110v-479h88
c94.667 0 166.167 20.167 214.5 60.5s72.5 99.833 72.5 178.5zM1014 440.001c0 -147.333 -45.501 -257.501 -136.501 -330.501s-228.5 -109.5 -412.5 -109.5h-322v1544h310c138 0 247.5 -36.167 328.5 -108.5s121.5 -169.166 121.5 -290.499
c0 -80.667 -20.5 -151.5 -61.5 -212.5s-93.5 -98.833 -157.5 -113.5c102.667 -12 183.334 -52.167 242.001 -120.5s88 -154.5 88 -258.5z" />
    <glyph glyph-name="Gamma" unicode="&#x393;" horiz-adv-x="788" 
d="M766 1368h-420v-1368h-192v1544h612v-176z" />
    <glyph glyph-name="Delta" unicode="&#x394;" horiz-adv-x="1440" 
d="M1165 164l-444 1007l-447 -1007h891zM1450 0h-1460l731 1589z" />
    <glyph glyph-name="Epsilon" unicode="&#x395;" horiz-adv-x="1067" 
d="M954 0h-811v1544h811v-180h-618v-451h618v-180h-618v-553h618v-180z" />
    <glyph glyph-name="Zeta" unicode="&#x396;" horiz-adv-x="1130" 
d="M1102 1544l-797 -1364h754v-180h-1069l801 1364h-711v180h1022z" />
    <glyph glyph-name="Eta" unicode="&#x397;" horiz-adv-x="1382" 
d="M1239 0h-192v733h-711v-733h-193v1544h193v-631h711v631h192v-1544z" />
    <glyph glyph-name="Theta" unicode="&#x398;" horiz-adv-x="1696" 
d="M1288 713h-880v180h880v-180zM1442 772c0 174.667 -57.3311 322.5 -171.998 443.5s-255.334 181.5 -422.001 181.5c-180.667 0 -324.834 -61.5 -432.501 -184.5s-161.5 -269.833 -161.5 -440.5c0 -174 57.167 -321.667 171.5 -443s255.166 -182 422.499 -182
c166.667 0 307.334 60.667 422.001 182s172 269 172 443zM1634 772c0 -225.333 -76.167 -415.833 -228.5 -571.5s-338.166 -233.5 -557.499 -233.5c-218 0 -403.667 78.167 -557 234.5s-230 346.5 -230 570.5c0 227.333 75.833 418.333 227.5 573s338.167 232 559.5 232
s407.666 -77.333 558.999 -232s227 -345.667 227 -573z" />
    <glyph glyph-name="Iota" unicode="&#x399;" horiz-adv-x="475" 
d="M334 0h-193v1544h193v-1544z" />
    <glyph glyph-name="Kappa" unicode="&#x39a;" horiz-adv-x="1229" 
d="M1237 0h-240l-651 801v-801h-192v1544h192v-719l637 719h227l-655 -723z" />
    <glyph glyph-name="Lambda" unicode="&#x39b;" horiz-adv-x="1311" 
d="M1321 0h-207l-457 1130l-460 -1130h-207l667 1589z" />
    <glyph glyph-name="Mu" unicode="&#x39c;" horiz-adv-x="1743" 
d="M1702 0h-193l-147 1001l-492 -1046l-487 1046l-147 -1001h-195l260 1589l573 -1227l574 1227z" />
    <glyph glyph-name="Nu" unicode="&#x39d;" horiz-adv-x="1608" 
d="M1464 -45l-1128 1171v-1126h-193v1589l1129 -1169v1124h192v-1589z" />
    <glyph glyph-name="Xi" unicode="&#x39e;" horiz-adv-x="1249" 
d="M1137 0h-1024v180h1024v-180zM1137 733h-1024v180h1024v-180zM1137 1364h-1024v180h1024v-180z" />
    <glyph glyph-name="Omicron" unicode="&#x39f;" horiz-adv-x="1696" 
d="M1442 772c0 174.667 -57.3311 322.5 -171.998 443.5s-255.334 181.5 -422.001 181.5c-180.667 0 -324.834 -61.5 -432.501 -184.5s-161.5 -269.833 -161.5 -440.5c0 -174 57.167 -321.667 171.5 -443s255.166 -182 422.499 -182c166.667 0 307.334 60.667 422.001 182
s172 269 172 443zM1634 772c0 -225.333 -76.167 -415.833 -228.5 -571.5s-338.166 -233.5 -557.499 -233.5c-218 0 -403.667 78.167 -557 234.5s-230 346.5 -230 570.5c0 227.333 75.833 418.333 227.5 573s338.167 232 559.5 232s407.666 -77.333 558.999 -232
s227 -345.667 227 -573z" />
    <glyph glyph-name="Pi" unicode="&#x3a0;" horiz-adv-x="1382" 
d="M1239 0h-192v1364h-711v-1364h-193v1544h1096v-1544z" />
    <glyph glyph-name="Rho" unicode="&#x3a1;" horiz-adv-x="1014" 
d="M760 1106c0 90 -27.333 155.5 -82 196.5s-144 61.5 -268 61.5h-74v-514h74c128.667 0 219.167 19.667 271.5 59s78.5 105 78.5 197zM952 1106c0 -141.333 -47 -249.333 -141 -324s-229 -112 -405 -112h-70v-670h-193v1544h263c182 0 318.5 -36.5 409.5 -109.5
s136.5 -182.5 136.5 -328.5z" />
    <glyph glyph-name="Sigma" unicode="&#x3a3;" horiz-adv-x="1130" 
d="M1059 0h-1069l497 809l-430 735h1002v-180h-690l325 -555l-389 -629h754v-180z" />
    <glyph glyph-name="Tau" unicode="&#x3a4;" horiz-adv-x="934" 
d="M913 1372h-350v-1372h-192v1372h-351v172h893v-172z" />
    <glyph glyph-name="Upsilon" unicode="&#x3a5;" horiz-adv-x="1174" 
d="M1167 1544l-481 -839v-705h-192v705l-488 839h217l371 -665l358 665h215z" />
    <glyph glyph-name="Phi" unicode="&#x3a6;" horiz-adv-x="1503" 
d="M662 373v825c-120.667 0 -215.5 -36.5 -284.5 -109.5s-103.5 -173.833 -103.5 -302.5s34.667 -229.667 104 -303s164 -110 284 -110zM854 1198l-0.000976562 -825c118.667 0 212.834 36.833 282.501 110.5s104.5 174.5 104.5 302.5c0 128.667 -34.5 229.5 -103.5 302.5
s-163.5 109.5 -283.5 109.5zM1434 786c0 -176 -51.5 -316.667 -154.5 -422s-244.833 -162.333 -425.5 -171v-193h-192v193c-181.333 8.66699 -323.333 65.667 -426 171s-154 246 -154 422c0 174.667 51.667 314.834 155 420.501s245 162.834 425 171.501v166h192v-166
c180 -8.66699 321.667 -65.834 425 -171.501s155 -245.834 155 -420.501z" />
    <glyph glyph-name="Chi" unicode="&#x3a7;" horiz-adv-x="1176" 
d="M1169 0h-221l-362 641l-359 -641h-221l473 815l-446 729h221l338 -577l334 577h219l-447 -737z" />
    <glyph glyph-name="Psi" unicode="&#x3a8;" horiz-adv-x="1534" 
d="M1391 907c0 -202.667 -43.499 -354.5 -130.499 -455.5s-218.833 -153.167 -395.5 -156.5l-1 -295h-192l-1 295c-174.667 2.66699 -306.334 55.167 -395.001 157.5s-133 253.833 -133 454.5v637h193v-676c0 -128.667 28 -225.834 84 -291.501s139.667 -99.5 251 -101.5
l1 1069h192l1 -1069c112 2 195.5 35.333 250.5 100s82.5 162.334 82.5 293.001v676h193v-637z" />
    <glyph glyph-name="Omega" unicode="&#x3a9;" horiz-adv-x="1696" 
d="M1665 0h-626.998v180c120 42.667 216.667 118.167 290 226.5s110 230.166 110 365.499c0 174.667 -56.833 322.5 -170.5 443.5s-253.5 181.5 -419.5 181.5c-180 0 -323.333 -61.167 -430 -183.5s-160 -269.5 -160 -441.5c0 -135.333 36.667 -257.166 110 -365.499
s169.666 -183.833 288.999 -226.5v-180h-626v180h323c-94 68 -166.333 153 -217 255s-76 214.333 -76 337c0 227.333 75.833 418.333 227.5 573s338.167 232 559.5 232s407.666 -77.333 558.999 -232s227 -345.667 227 -573c0 -122.667 -25.167 -235 -75.5 -337
s-122.833 -187 -217.5 -255h324v-180z" />
    <glyph glyph-name="Iotadieresis" unicode="&#x3aa;" horiz-adv-x="475" 
d="M334 0h-193v1544h193v-1544zM145 1825c0 -29.333 -9.66895 -53.666 -29.002 -72.999s-43.666 -29 -72.999 -29c-30 0 -55 9.83301 -75 29.5s-30 43.834 -30 72.501c0 27.333 10.5 51.166 31.5 71.499s45.5 30.5 73.5 30.5c28.667 0 52.834 -9.83301 72.501 -29.5
s29.5 -43.834 29.5 -72.501zM535.998 1825c0 -29.333 -9.66992 -53.666 -29.0029 -72.999s-43.666 -29 -72.999 -29s-54.166 9.83301 -74.499 29.5s-30.5 43.834 -30.5 72.501c0 27.333 10.5 51.166 31.5 71.499s45.5 30.5 73.5 30.5c28.667 0 52.834 -9.83301 72.501 -29.5
s29.5 -43.834 29.5 -72.501z" />
    <glyph glyph-name="Upsilondieresis" unicode="&#x3ab;" horiz-adv-x="1174" 
d="M1167 1544l-481 -839v-705h-192v705l-488 839h217l371 -665l358 665h215zM495 1825c0 -29.333 -9.66895 -53.666 -29.002 -72.999s-43.666 -29 -72.999 -29c-30 0 -55 9.83301 -75 29.5s-30 43.834 -30 72.501c0 27.333 10.5 51.166 31.5 71.499s45.5 30.5 73.5 30.5
c28.667 0 52.834 -9.83301 72.501 -29.5s29.5 -43.834 29.5 -72.501zM885.998 1825c0 -29.333 -9.66992 -53.666 -29.0029 -72.999s-43.666 -29 -72.999 -29s-54.166 9.83301 -74.499 29.5s-30.5 43.834 -30.5 72.501c0 27.333 10.5 51.166 31.5 71.499s45.5 30.5 73.5 30.5
c28.667 0 52.834 -9.83301 72.501 -29.5s29.5 -43.834 29.5 -72.501z" />
    <glyph glyph-name="alphatonos" unicode="&#x3ac;" horiz-adv-x="1139" 
d="M821 489c0 102 -26.002 181.833 -78.002 239.5s-123 86.5 -213 86.5c-89.333 0 -160.666 -29.833 -213.999 -89.5s-80 -140.5 -80 -242.5c0 -102.667 26.333 -185 79 -247s122.334 -93 209.001 -93c88 0 159.5 32 214.5 96s82.5 147.333 82.5 250zM1006 0
l-184.998 0.000976562v150c-31.333 -60.667 -74 -106.334 -128 -137.001s-119 -46 -195 -46c-132.667 0 -240.334 48 -323.001 144s-124 220.667 -124 374c0 150.667 41.5 272.667 124.5 366s191.833 140 326.5 140c71.333 0 133.666 -14.167 186.999 -42.5
s97.333 -70.833 132 -127.5v137h185v-958zM639 1485l-20 -410h-98l-21 410h139z" />
    <glyph glyph-name="epsilontonos" unicode="&#x3ad;" horiz-adv-x="778" 
d="M717 39c-52 -27.333 -97.834 -46.168 -137.501 -56.501s-85.5 -15.5 -137.5 -15.5c-110.667 0 -198.334 25.5 -263.001 76.5s-97 119.167 -97 204.5c0 66 14.333 121.167 43 165.5s70.334 75.166 125.001 92.499c-57.333 14.667 -99.666 39.834 -126.999 75.501
s-41 84.834 -41 147.501c0 83.333 31.333 147.833 94 193.5s151.334 68.5 266.001 68.5c52 0 100.833 -5.66699 146.5 -17s88.5 -28 128.5 -50v-179c-38 27.333 -78.833 47.833 -122.5 61.5s-88.167 20.5 -133.5 20.5c-61.333 0 -109.166 -11.167 -143.499 -33.5
s-51.5 -54.166 -51.5 -95.499c0 -47.333 17.667 -82.666 53 -105.999s93.666 -37 174.999 -41v-88c-70.667 -2.66699 -126.334 -20.834 -167.001 -54.501s-61 -76.834 -61 -129.501c0 -46 17.833 -82.167 53.5 -108.5s83.5 -39.5 143.5 -39.5c46 0 90 7 132 21
s82.667 35 122 63v-176zM457.999 1485l-20 -410h-98l-21 410h139z" />
    <glyph glyph-name="etatonos" unicode="&#x3ae;" horiz-adv-x="1071" 
d="M944 -532l-184.001 0.00195312v1099c0 89.333 -16 155 -48 197s-82.333 63 -151 63c-78 0 -138.167 -31.333 -180.5 -94s-63.5 -153.334 -63.5 -272.001v-461h-184v958h184v-135c28.667 55.333 68.834 97.166 120.501 125.499s114.167 42.5 187.5 42.5
c99.333 0 177.333 -33 234 -99s85 -158.667 85 -278v-1146zM605.999 1485l-20 -410h-98l-21 410h139z" />
    <glyph glyph-name="iotatonos" unicode="&#x3af;" horiz-adv-x="520" 
d="M352 0h-184v958h184v-958zM329 1485l-20 -410h-98l-21 410h139z" />
    <glyph glyph-name="upsilondieresistonos" unicode="&#x3b0;" horiz-adv-x="1049" 
d="M920 418c0 -153.333 -32.332 -266.833 -96.999 -340.5s-164.334 -110.5 -299.001 -110.5c-136.667 0 -236.667 36.167 -300 108.5s-95 186.5 -95 342.5v540h184v-540c0 -96.667 16 -166.667 48 -210s86.333 -65 163 -65c76 0 130.167 21.667 162.5 65
s48.5 113.333 48.5 210v540h185v-540zM385.001 1239c0 -29.333 -9.66895 -53.666 -29.002 -72.999s-43.666 -29 -72.999 -29c-30 0 -55 9.83301 -75 29.5s-30 43.834 -30 72.501c0 27.333 10.5 51.166 31.5 71.499s45.5 30.5 73.5 30.5
c28.667 0 52.834 -9.83301 72.501 -29.5s29.5 -43.834 29.5 -72.501zM593.999 1485l-21 -410h-98l-20 410h139zM869.999 1239c0 -29.333 -9.66895 -53.666 -29.002 -72.999s-43.666 -29 -72.999 -29s-54 9.83301 -74 29.5s-30 43.834 -30 72.501
c0 27.333 10.333 51.166 31 71.499s45 30.5 73 30.5c28.667 0 52.834 -9.83301 72.501 -29.5s29.5 -43.834 29.5 -72.501z" />
    <glyph glyph-name="alpha" unicode="&#x3b1;" horiz-adv-x="1139" 
d="M821 489c0 102 -26.002 181.833 -78.002 239.5s-123 86.5 -213 86.5c-89.333 0 -160.666 -29.833 -213.999 -89.5s-80 -140.5 -80 -242.5c0 -102.667 26.333 -185 79 -247s122.334 -93 209.001 -93c88 0 159.5 32 214.5 96s82.5 147.333 82.5 250zM1006 0
l-184.998 0.000976562v150c-31.333 -60.667 -74 -106.334 -128 -137.001s-119 -46 -195 -46c-132.667 0 -240.334 48 -323.001 144s-124 220.667 -124 374c0 150.667 41.5 272.667 124.5 366s191.833 140 326.5 140c71.333 0 133.666 -14.167 186.999 -42.5
s97.333 -70.833 132 -127.5v137h185v-958z" />
    <glyph glyph-name="beta" unicode="&#x3b2;" horiz-adv-x="1167" 
d="M932 494c0 110 -34.666 202.666 -103.999 277.999s-155 113 -257 113h-55v164h19c84 0 149 22 195 66s69 106.667 69 188c0 76.667 -21.167 137.334 -63.5 182.001s-99.833 67 -172.5 67c-84.667 0 -148.167 -25.667 -190.5 -77s-63.5 -129.333 -63.5 -234v-754
c0 -108 28.667 -194.333 86 -259s132.666 -97 225.999 -97c90.667 0 165.167 33.5 223.5 100.5s87.5 154.5 87.5 262.5zM1116 493.999c0 -158 -43.5 -285.334 -130.5 -382.001s-201.833 -145 -344.5 -145c-74.667 0 -139.834 15.333 -195.501 46
s-101.167 76.334 -136.5 137.001v-682h-176v1767c0 154.667 37.667 273.5 113 356.5s182.333 124.5 321 124.5c127.333 0 228.5 -37.5 303.5 -112.5s112.5 -173.833 112.5 -296.5c0 -80 -21 -149.833 -63 -209.5s-98.667 -99.834 -170 -120.501
c100.667 -14 186.834 -67.667 258.501 -161s107.5 -200.666 107.5 -321.999z" />
    <glyph glyph-name="gamma" unicode="&#x3b3;" horiz-adv-x="911" 
d="M922 958l-373 -804v-686h-184v686l-375 804h209l258 -608l254 608h211z" />
    <glyph glyph-name="delta" unicode="&#x3b4;" horiz-adv-x="1106" 
d="M877 483c0 96.667 -30.833 176.167 -92.5 238.5s-138.834 93.5 -231.501 93.5c-94 0 -171.5 -31 -232.5 -93s-91.5 -141.667 -91.5 -239c0 -98.667 30.833 -180 92.5 -244s138.834 -96 231.501 -96c94 0 171.5 32 232.5 96s91.5 145.333 91.5 244zM1061 483
c0 -144 -49.167 -265.998 -147.5 -365.998s-219.166 -150 -362.499 -150c-142.667 0 -262.667 49.833 -360 149.5s-146 221.834 -146 366.501c0 125.333 36.167 233 108.5 323s167.5 146.333 285.5 169c6 1.33301 13.333 2.66602 22 3.99902s20 2.66602 34 3.99902
c-80 56.667 -140.5 119.167 -181.5 187.5s-61.5 140.166 -61.5 215.499c0 98.667 34.167 174 102.5 226s168.5 78 300.5 78h56v-177h-56c-82.667 0 -139.834 -10.333 -171.501 -31s-47.5 -56.667 -47.5 -108c0 -103.333 95 -225 285 -365c48 -36 82 -62.333 102 -79
c86 -72.667 147.167 -143.667 183.5 -213s54.5 -147.333 54.5 -234z" />
    <glyph glyph-name="epsilon" unicode="&#x3b5;" horiz-adv-x="778" 
d="M717 39c-52 -27.333 -97.834 -46.168 -137.501 -56.501s-85.5 -15.5 -137.5 -15.5c-110.667 0 -198.334 25.5 -263.001 76.5s-97 119.167 -97 204.5c0 66 14.333 121.167 43 165.5s70.334 75.166 125.001 92.499c-57.333 14.667 -99.666 39.834 -126.999 75.501
s-41 84.834 -41 147.501c0 83.333 31.333 147.833 94 193.5s151.334 68.5 266.001 68.5c52 0 100.833 -5.66699 146.5 -17s88.5 -28 128.5 -50v-179c-38 27.333 -78.833 47.833 -122.5 61.5s-88.167 20.5 -133.5 20.5c-61.333 0 -109.166 -11.167 -143.499 -33.5
s-51.5 -54.166 -51.5 -95.499c0 -47.333 17.667 -82.666 53 -105.999s93.666 -37 174.999 -41v-88c-70.667 -2.66699 -126.334 -20.834 -167.001 -54.501s-61 -76.834 -61 -129.501c0 -46 17.833 -82.167 53.5 -108.5s83.5 -39.5 143.5 -39.5c46 0 90 7 132 21
s82.667 35 122 63v-176z" />
    <glyph glyph-name="zeta" unicode="&#x3b6;" horiz-adv-x="844" 
d="M854 1690c-240 -354 -401.333 -619.17 -484 -795.503s-124 -339.166 -124 -488.499c0 -80.667 20.667 -139.167 62 -175.5s107.333 -54.5 198 -54.5c98 0 176.667 -28.5 236 -85.5s89 -130.167 89 -219.5c0 -60.667 -16.833 -119.167 -50.5 -175.5
s-79.5 -102.166 -137.5 -137.499l-100 118c32.667 20 58.167 45.5 76.5 76.5s27.5 64.5 27.5 100.5c0 49.333 -15 86.166 -45 110.499s-75 36.5 -135 36.5c-135.333 0 -236.833 32.667 -304.5 98s-101.5 163 -101.5 293c0 146.667 41 311.334 123 494.001
s211 396.334 387 641.001h-376v164h659z" />
    <glyph glyph-name="eta" unicode="&#x3b7;" horiz-adv-x="1071" 
d="M944 -532l-184.001 0.00195312v1099c0 89.333 -16 155 -48 197s-82.333 63 -151 63c-78 0 -138.167 -31.333 -180.5 -94s-63.5 -153.334 -63.5 -272.001v-461h-184v958h184v-135c28.667 55.333 68.834 97.166 120.501 125.499s114.167 42.5 187.5 42.5
c99.333 0 177.333 -33 234 -99s85 -158.667 85 -278v-1146z" />
    <glyph glyph-name="theta" unicode="&#x3b8;" 
d="M950 795h-714c4.66699 -197.333 39.834 -357.333 105.501 -480s149.167 -184 250.5 -184c104.667 0 189.167 60.167 253.5 180.5s99.166 281.5 104.499 483.5zM946 958c-11.333 184 -49.168 328.999 -113.501 434.999s-145.166 159 -242.499 159
c-94.667 0 -173.5 -53.667 -236.5 -161s-100.833 -251.666 -113.5 -432.999h706zM1133 841.999c0 -252.667 -51 -461.667 -153 -627s-232 -248 -390 -248c-155.333 0 -284 83 -386 249s-153 374.667 -153 626s51 459.833 153 625.5s231.333 248.5 388 248.5
c157.333 0 286.833 -82.333 388.5 -247s152.5 -373.667 152.5 -627z" />
    <glyph glyph-name="iota" unicode="&#x3b9;" horiz-adv-x="520" 
d="M352 0h-184v958h184v-958z" />
    <glyph glyph-name="kappa" unicode="&#x3ba;" horiz-adv-x="946" 
d="M944 0h-221l-395 506v-506h-185v958h185v-426l366 426h217l-391 -430z" />
    <glyph glyph-name="lambda" unicode="&#x3bb;" horiz-adv-x="991" 
d="M983 0h-203l-274 707l-297 -707h-201l404 918l-328 772h203z" />
    <glyph glyph-name="mu" unicode="&#x3bc;" horiz-adv-x="1077" 
d="M944 0h-184.001v104c-17.333 -43.333 -45.5 -77 -84.5 -101s-84.5 -36 -136.5 -36c-52.667 0 -98.5 12 -137.5 36s-67.167 57.667 -84.5 101v-636h-184v1490h184v-471c0 -123.333 18.333 -215.166 55 -275.499s92.334 -90.5 167.001 -90.5c74 0 129.333 30.167 166 90.5
s55 152.166 55 275.499v471h184v-958z" />
    <glyph glyph-name="nu" unicode="&#x3bd;" horiz-adv-x="911" 
d="M922 958l-465 -1003l-467 1003h209l258 -608l254 608h211z" />
    <glyph glyph-name="xi" unicode="&#x3be;" horiz-adv-x="938" 
d="M901 -145c0 -56 -16.5 -111.5 -49.5 -166.5s-75.167 -98.5 -126.5 -130.5l-100 118c28.667 22 51.167 47.167 67.5 75.5s24.5 57.166 24.5 86.499c0 52.667 -15.5 92.834 -46.5 120.501s-76.167 41.5 -135.5 41.5c-142.667 0 -253.167 39.5 -331.5 118.5
s-117.5 191.833 -117.5 338.5c0 111.333 32.333 206.833 97 286.5s147.667 128.834 249 147.501c-60.667 23.333 -110 61.333 -148 114s-57 111 -57 175c0 69.333 19.667 136 59 200s92.666 116.667 159.999 158h-286v152h663c-128 -78 -228.5 -161.667 -301.5 -251
s-109.5 -173 -109.5 -251c0 -67.333 25.5 -122.5 76.5 -165.5s117.5 -64.5 199.5 -64.5h55v-151h-104c-105.333 0 -193.166 -32.333 -263.499 -97s-105.5 -147.667 -105.5 -249c0 -96.667 24 -168.334 72 -215.001s123 -70 225 -70c102.667 0 184 -28.5 244 -85.5
s90 -135.5 90 -235.5z" />
    <glyph glyph-name="omicron" unicode="&#x3bf;" horiz-adv-x="1106" 
d="M877 483c0 96.667 -30.833 176.167 -92.5 238.5s-138.834 93.5 -231.501 93.5c-94 0 -171.5 -31 -232.5 -93s-91.5 -141.667 -91.5 -239c0 -98.667 30.833 -180 92.5 -244s138.834 -96 231.501 -96c94 0 171.5 32 232.5 96s91.5 145.333 91.5 244zM1061 483
c0 -144 -49.1689 -266.001 -147.502 -366.001s-219.166 -150 -362.499 -150c-142.667 0 -262.667 49.833 -360 149.5s-146 221.834 -146 366.501s48.333 265.5 145 362.5s217 145.5 361 145.5c144.667 0 265.834 -48.833 363.501 -146.5s146.5 -218.167 146.5 -361.5z" />
    <glyph glyph-name="pi" unicode="&#x3c0;" horiz-adv-x="1077" 
d="M944 0h-184v795h-443v-795h-184v958h811v-958z" />
    <glyph glyph-name="rho" unicode="&#x3c1;" horiz-adv-x="1128" 
d="M893 483c0 102 -26.667 182.833 -80 242.5s-125 89.5 -215 89.5s-161 -28.833 -213 -86.5s-78 -137.5 -78 -239.5c0 -102.667 27.5 -186 82.5 -250s126.5 -96 214.5 -96c86.667 0 156.5 31 209.5 93s79.5 144.333 79.5 247zM1077 485
c0 -153.333 -41.334 -278.001 -124.001 -374.001s-190 -144 -322 -144c-76 0 -141.167 15.333 -195.5 46s-97.166 76.334 -128.499 137.001v-682h-184v1017c0 152 43.5 274.333 130.5 367s202.5 139 346.5 139s259.5 -46.333 346.5 -139s130.5 -215 130.5 -367z" />
    <glyph glyph-name="sigma1" unicode="&#x3c2;" horiz-adv-x="903" 
d="M887 -145c0 -59.333 -15.4971 -115.5 -46.4971 -168.5s-73.5 -95.833 -127.5 -128.5l-103 118c29.333 22 52 47.167 68 75.5s24 57.166 24 86.499c0 52 -15.833 92 -47.5 120s-77.834 42 -138.501 42c-146.667 0 -260.834 43.333 -342.501 130s-122.5 208 -122.5 364
c0 150.667 48.167 271.167 144.5 361.5s225.166 135.5 386.499 135.5c49.333 0 94.5 -5.16699 135.5 -15.5s82.5 -26.833 124.5 -49.5v-197c-37.333 27.333 -77.833 48.5 -121.5 63.5s-87.167 22.5 -130.5 22.5c-110.667 0 -197.334 -28.667 -260.001 -86
s-94 -137.333 -94 -240s26 -180.5 78 -233.5s129 -79.5 231 -79.5c106.667 0 190.334 -28.667 251.001 -86s91 -135.666 91 -234.999z" />
    <glyph glyph-name="sigma" unicode="&#x3c3;" horiz-adv-x="1106" 
d="M877 483c0 96.667 -30.833 176.167 -92.5 238.5s-138.834 93.5 -231.501 93.5c-94 0 -171.5 -31 -232.5 -93s-91.5 -141.667 -91.5 -239c0 -98.667 30.833 -180 92.5 -244s138.834 -96 231.501 -96c94 0 171.5 32 232.5 96s91.5 145.333 91.5 244zM1096 795
l-157.999 -0.00195312c37.333 -37.333 67.166 -84.333 89.499 -141s33.5 -113.667 33.5 -171c0 -144 -49.167 -266 -147.5 -366s-219.166 -150 -362.499 -150c-142.667 0 -262.667 49.833 -360 149.5s-146 221.834 -146 366.501s48.333 265.5 145 362.5s217 145.5 361 145.5
c31.333 0 62.666 -2.66699 93.999 -8s62 -13.666 92 -24.999h359v-163z" />
    <glyph glyph-name="tau" unicode="&#x3c4;" horiz-adv-x="684" 
d="M664 795h-230v-795h-184v795h-230v163h644v-163z" />
    <glyph glyph-name="upsilon" unicode="&#x3c5;" horiz-adv-x="1049" 
d="M920 418c0 -153.333 -32.332 -266.833 -96.999 -340.5s-164.334 -110.5 -299.001 -110.5c-136.667 0 -236.667 36.167 -300 108.5s-95 186.5 -95 342.5v540h184v-540c0 -96.667 16 -166.667 48 -210s86.333 -65 163 -65c76 0 130.167 21.667 162.5 65
s48.5 113.333 48.5 210v540h185v-540z" />
    <glyph glyph-name="phi" unicode="&#x3c6;" horiz-adv-x="1343" 
d="M1087 481c0 88.667 -29.167 160 -87.5 214s-136.833 83.667 -235.5 89v-608c106.667 8 187.167 37.667 241.5 89s81.5 123.333 81.5 216zM1272 481c0 -140 -45.335 -252.335 -136.002 -337.002s-214.667 -132.667 -372 -144v-532h-184v532
c-163.333 10 -288.833 56.333 -376.5 139s-131.5 196.667 -131.5 342c0 129.333 40 239.5 120 330.5s182.667 139.833 308 146.5v-175c-76.667 -5.33301 -136.5 -34 -179.5 -86s-64.5 -124 -64.5 -216c0 -95.333 25.833 -167.666 77.5 -216.999
s133.834 -78.666 246.501 -87.999v782h122c172.667 0 310.834 -43.5 414.501 -130.5s155.5 -202.5 155.5 -346.5z" />
    <glyph glyph-name="chi" unicode="&#x3c7;" horiz-adv-x="934" 
d="M971 -532h-197l-311 630l-303 -630h-197l408 802l-359 688h197l262 -528l254 528h197l-359 -698z" />
    <glyph glyph-name="psi" unicode="&#x3c8;" horiz-adv-x="1464" 
d="M1341 561c0 -182 -44.166 -321 -132.499 -417s-216.833 -144 -385.5 -144v-532h-184v532c-168.667 0 -296.834 48 -384.501 144s-131.5 235 -131.5 417v397h182v-405c0 -126 27.833 -220.333 83.5 -283s139.167 -94 250.5 -94v782h184v-782
c111.333 0 194.833 31.667 250.5 95s83.5 157.333 83.5 282v405h184v-397z" />
    <glyph glyph-name="omega" unicode="&#x3c9;" horiz-adv-x="1393" 
d="M1290 449c0 -153.333 -30.1709 -272 -90.5039 -356s-145.5 -126 -255.5 -126c-61.333 0 -113.166 16.833 -155.499 50.5s-73.166 82.5 -92.499 146.5c-18.667 -64 -49.167 -112.833 -91.5 -146.5s-94.166 -50.5 -155.499 -50.5c-110 0 -195.333 42 -256 126
s-91 202.667 -91 356c0 106.667 13.5 206.334 40.5 299.001s62.167 162.667 105.5 210h168c-48 -82 -81.5 -160.167 -100.5 -234.5s-28.5 -161.166 -28.5 -260.499c0 -112 14.167 -195.333 42.5 -250s72.166 -82 131.499 -82c54 0 92.333 28 115 84s34 172 34 348v96h172
v-96c0 -176 11.5 -292 34.5 -348s61.5 -84 115.5 -84c58.667 0 102.334 27.333 131.001 82s43 138 43 250c0 99.333 -9.66699 186.166 -29 260.499s-52.666 152.5 -99.999 234.5h168c43.333 -47.333 78.333 -117.333 105 -210s40 -192.334 40 -299.001z" />
    <glyph glyph-name="iotadieresis" unicode="&#x3ca;" horiz-adv-x="520" 
d="M352 0h-184v958h184v-958zM168 1239c0 -29.333 -9.66895 -53.666 -29.002 -72.999s-43.666 -29 -72.999 -29c-30 0 -55 9.83301 -75 29.5s-30 43.834 -30 72.501c0 27.333 10.5 51.166 31.5 71.499s45.5 30.5 73.5 30.5c28.667 0 52.834 -9.83301 72.501 -29.5
s29.5 -43.834 29.5 -72.501zM558.998 1239c0 -29.333 -9.66992 -53.666 -29.0029 -72.999s-43.666 -29 -72.999 -29s-54.166 9.83301 -74.499 29.5s-30.5 43.834 -30.5 72.501c0 27.333 10.5 51.166 31.5 71.499s45.5 30.5 73.5 30.5c28.667 0 52.834 -9.83301 72.501 -29.5
s29.5 -43.834 29.5 -72.501z" />
    <glyph glyph-name="upsilondieresis" unicode="&#x3cb;" horiz-adv-x="1049" 
d="M920 418c0 -153.333 -32.332 -266.833 -96.999 -340.5s-164.334 -110.5 -299.001 -110.5c-136.667 0 -236.667 36.167 -300 108.5s-95 186.5 -95 342.5v540h184v-540c0 -96.667 16 -166.667 48 -210s86.333 -65 163 -65c76 0 130.167 21.667 162.5 65
s48.5 113.333 48.5 210v540h185v-540zM432.001 1239c0 -29.333 -9.66895 -53.666 -29.002 -72.999s-43.666 -29 -72.999 -29c-30 0 -55 9.83301 -75 29.5s-30 43.834 -30 72.501c0 27.333 10.5 51.166 31.5 71.499s45.5 30.5 73.5 30.5
c28.667 0 52.834 -9.83301 72.501 -29.5s29.5 -43.834 29.5 -72.501zM822.999 1239c0 -29.333 -9.66992 -53.666 -29.0029 -72.999s-43.666 -29 -72.999 -29s-54.166 9.83301 -74.499 29.5s-30.5 43.834 -30.5 72.501c0 27.333 10.5 51.166 31.5 71.499s45.5 30.5 73.5 30.5
c28.667 0 52.834 -9.83301 72.501 -29.5s29.5 -43.834 29.5 -72.501z" />
    <glyph glyph-name="omicrontonos" unicode="&#x3cc;" horiz-adv-x="1106" 
d="M877 483c0 96.667 -30.833 176.167 -92.5 238.5s-138.834 93.5 -231.501 93.5c-94 0 -171.5 -31 -232.5 -93s-91.5 -141.667 -91.5 -239c0 -98.667 30.833 -180 92.5 -244s138.834 -96 231.501 -96c94 0 171.5 32 232.5 96s91.5 145.333 91.5 244zM1061 483
c0 -144 -49.1689 -266.001 -147.502 -366.001s-219.166 -150 -362.499 -150c-142.667 0 -262.667 49.833 -360 149.5s-146 221.834 -146 366.501s48.333 265.5 145 362.5s217 145.5 361 145.5c144.667 0 265.834 -48.833 363.501 -146.5s146.5 -218.167 146.5 -361.5z
M621.998 1485l-20 -410h-98l-21 410h139z" />
    <glyph glyph-name="upsilontonos" unicode="&#x3cd;" horiz-adv-x="1049" 
d="M920 418c0 -153.333 -32.332 -266.833 -96.999 -340.5s-164.334 -110.5 -299.001 -110.5c-136.667 0 -236.667 36.167 -300 108.5s-95 186.5 -95 342.5v540h184v-540c0 -96.667 16 -166.667 48 -210s86.333 -65 163 -65c76 0 130.167 21.667 162.5 65
s48.5 113.333 48.5 210v540h185v-540zM593.001 1485l-20 -410h-98l-21 410h139z" />
    <glyph glyph-name="omegatonos" unicode="&#x3ce;" horiz-adv-x="1393" 
d="M1290 449c0 -153.333 -30.1709 -272 -90.5039 -356s-145.5 -126 -255.5 -126c-61.333 0 -113.166 16.833 -155.499 50.5s-73.166 82.5 -92.499 146.5c-18.667 -64 -49.167 -112.833 -91.5 -146.5s-94.166 -50.5 -155.499 -50.5c-110 0 -195.333 42 -256 126
s-91 202.667 -91 356c0 106.667 13.5 206.334 40.5 299.001s62.167 162.667 105.5 210h168c-48 -82 -81.5 -160.167 -100.5 -234.5s-28.5 -161.166 -28.5 -260.499c0 -112 14.167 -195.333 42.5 -250s72.166 -82 131.499 -82c54 0 92.333 28 115 84s34 172 34 348v96h172
v-96c0 -176 11.5 -292 34.5 -348s61.5 -84 115.5 -84c58.667 0 102.334 27.333 131.001 82s43 138 43 250c0 99.333 -9.66699 186.166 -29 260.499s-52.666 152.5 -99.999 234.5h168c43.333 -47.333 78.333 -117.333 105 -210s40 -192.334 40 -299.001zM765.996 1485
l-20 -410h-98l-21 410h139z" />
    <glyph glyph-name="afii10023" unicode="&#x401;" horiz-adv-x="1067" 
d="M954 0h-811v1544h811v-180h-618v-451h618v-180h-618v-553h618v-180zM442 1757c0 -29.333 -9.66895 -53.667 -29.002 -73s-43.666 -29 -72.999 -29c-28.667 0 -53.167 10 -73.5 30s-30.5 44 -30.5 72c0 27.333 10.333 51.333 31 72s45 31 73 31
c28.667 0 52.834 -10 72.501 -30s29.5 -44.333 29.5 -73zM833.998 1757c0 -29.333 -9.83301 -53.667 -29.5 -73s-44.167 -29 -73.5 -29c-28.667 0 -53.167 10 -73.5 30s-30.5 44 -30.5 72c0 27.333 10.333 51.333 31 72s45 31 73 31c28.667 0 53 -10 73 -30
s30 -44.333 30 -73z" />
    <glyph glyph-name="afii10051" unicode="&#x402;" horiz-adv-x="1536" 
d="M1454 479c0 -152 -46.499 -275.332 -139.499 -369.999s-220.5 -142 -382.5 -142v180c103.333 0 184.166 29.833 242.499 89.5s87.5 140.5 87.5 242.5c0 99.333 -30.167 179.5 -90.5 240.5s-140.166 91.5 -239.499 91.5c-70 0 -139.333 -11 -208 -33
s-122.334 -50 -161.001 -84v-694h-192v1372h-351v172h893v-172h-350v-489c41.333 31.333 95.833 57.166 163.5 77.499s136.167 30.5 205.5 30.5c160 0 287 -47.167 381 -141.5s141 -217.833 141 -370.5z" />
    <glyph glyph-name="afii10052" unicode="&#x403;" horiz-adv-x="788" 
d="M766 1368h-420v-1368h-192v1544h612v-176zM643 1921l-307 -260l-65 74l282 295z" />
    <glyph glyph-name="afii10053" unicode="&#x404;" horiz-adv-x="1354" 
d="M1296 96c-58.667 -38 -129.002 -69 -211.002 -93s-159 -36 -231 -36c-232 0 -419.333 74.5 -562 223.5s-214 343.5 -214 583.5c0 232 72.667 423.833 218 575.5s332 227.5 560 227.5c89.333 0 169.833 -10.5 241.5 -31.5s137.834 -53.5 198.501 -97.5v-215
c-66.667 54.667 -134.5 95.667 -203.5 123s-140.167 41 -213.5 41c-161.333 0 -296.666 -47.5 -405.999 -142.5s-175 -220.833 -197 -377.5h779v-181h-781c16 -164 77 -296.5 183 -397.5s237.667 -151.5 395 -151.5c82.667 0 161 14 235 42s143.667 70 209 126v-219z" />
    <glyph glyph-name="afii10054" unicode="&#x405;" horiz-adv-x="1100" 
d="M993 412c0 -138.667 -42.6689 -247.5 -128.002 -326.5s-203 -118.5 -353 -118.5c-104 0 -194.5 22.667 -271.5 68s-133.167 109.333 -168.5 192l133 121c23.333 -62.667 63 -111.834 119 -147.501s120.667 -53.5 194 -53.5c90 0 159.667 22.333 209 67s74 107.667 74 189
c0 67.333 -24.333 126.5 -73 177.5s-130.334 105.167 -245.001 162.5c-133.333 67.333 -226.666 133.666 -279.999 198.999s-80 147.333 -80 246c0 116.667 39.333 210.667 118 282s183.334 107 314.001 107c80.667 0 151.167 -15.333 211.5 -46s110.833 -76.667 151.5 -138
l-127 -125c-23.333 40.667 -56.333 72.334 -99 95.001s-90.334 34 -143.001 34c-72 0 -129 -18 -171 -54s-63 -84.333 -63 -145c0 -56.667 16.833 -105.167 50.5 -145.5s100.834 -87.5 201.501 -141.5c176.667 -95.333 291.834 -178.166 345.501 -248.499
s80.5 -153.833 80.5 -250.5z" />
    <glyph glyph-name="afii10055" unicode="&#x406;" horiz-adv-x="475" 
d="M334 0h-193v1544h193v-1544z" />
    <glyph glyph-name="afii10056" unicode="&#x407;" horiz-adv-x="475" 
d="M334 0h-193v1544h193v-1544zM176 1716c0 -29.333 -9.83398 -53.667 -29.501 -73s-43.834 -29 -72.501 -29c-29.333 0 -54.166 10 -74.499 30s-30.5 44 -30.5 72c0 27.333 10.5 51.333 31.5 72s45.5 31 73.5 31c28.667 0 52.834 -10 72.501 -30s29.5 -44.333 29.5 -73z
M505.999 1716c0 -29.333 -9.83301 -53.667 -29.5 -73s-44.167 -29 -73.5 -29c-28.667 0 -53.167 10 -73.5 30s-30.5 44 -30.5 72c0 27.333 10.5 51.333 31.5 72s45.167 31 72.5 31c28.667 0 53 -10 73 -30s30 -44.333 30 -73z" />
    <glyph glyph-name="afii10057" unicode="&#x408;" horiz-adv-x="741" 
d="M588 410c0 -154 -29.998 -266.332 -89.998 -336.999s-155.667 -106 -287 -106c-38.667 0 -79.334 4.83301 -122.001 14.5s-85.334 23.5 -128.001 41.5l57 172c43.333 -18.667 78.5 -31.334 105.5 -38.001s52.833 -10 77.5 -10c72 0 122.333 21.5 151 64.5
s43 113.833 43 212.5v1120h193v-1134z" />
    <glyph glyph-name="afii10058" unicode="&#x409;" horiz-adv-x="1853" 
d="M1579 457c0 91.333 -31.167 160.833 -93.5 208.5s-153.5 71.5 -273.5 71.5h-118v-561h137c118 0 205.5 23.167 262.5 69.5s85.5 116.833 85.5 211.5zM1772 457c0 -150.667 -46.166 -264.5 -138.499 -341.5s-229.166 -115.5 -410.499 -115.5h-322v1364h-524v-954
c0 -156.667 -28.667 -269.667 -86 -339s-151 -104 -281 -104v180c67.333 0 113.166 20.333 137.499 61s36.5 112.667 36.5 216v1120h910v-631h129c181.333 0 318.166 -38.5 410.499 -115.5s138.5 -190.5 138.5 -340.5z" />
    <glyph glyph-name="afii10059" unicode="&#x40a;" horiz-adv-x="1812" 
d="M1538 457c0 91.333 -31.167 160.833 -93.5 208.5s-153.5 71.5 -273.5 71.5h-118v-561h137c118 0 205.5 23.167 262.5 69.5s85.5 116.833 85.5 211.5zM1731 457c0 -150.667 -46.167 -264.5 -138.5 -341.5s-229.166 -115.5 -410.499 -115.5h-322v737h-524v-737h-193v1544
h193v-631h524v631h193v-631h129c181.333 0 318.166 -38.5 410.499 -115.5s138.5 -190.5 138.5 -340.5z" />
    <glyph glyph-name="afii10060" unicode="&#x40b;" horiz-adv-x="1556" 
d="M1454 0l-192.003 -0.000976562v430c0 130 -28.5 226 -85.5 288s-145.5 93 -265.5 93c-67.333 0 -132.166 -10.5 -194.499 -31.5s-113.5 -49.5 -153.5 -85.5v-694h-192v1372h-351v172h893v-172h-350v-489c44.667 34 97.334 60.5 158.001 79.5s124 28.5 190 28.5
c182.667 0 318.834 -49.667 408.501 -149s134.5 -249.666 134.5 -450.999v-391z" />
    <glyph glyph-name="afii10061" unicode="&#x40c;" horiz-adv-x="1229" 
d="M1237 0h-240l-651 801v-801h-192v1544h192v-719l637 719h227l-655 -723zM862 1921l-307 -260l-65 74l282 295z" />
    <glyph glyph-name="afii10062" unicode="&#x40e;" horiz-adv-x="1155" 
d="M1165 1544l-725 -1544h-207l299 637l-542 907h217l418 -719l333 719h207zM893 1942c-18 -82.667 -53.502 -145.333 -106.502 -188s-121.833 -64 -206.5 -64c-85.333 0 -156.166 22.167 -212.499 66.5s-90.833 106.166 -103.5 185.499l119 41
c8.66699 -55.333 30.834 -100.666 66.501 -135.999s79.167 -53 130.5 -53s95 18.5 131 55.5s56.333 81.167 61 132.5z" />
    <glyph glyph-name="afii10145" unicode="&#x40f;" horiz-adv-x="1382" 
d="M1239 0h-451v-328h-192v328h-453v1544h193v-1364h711v1364h192v-1544z" />
    <glyph glyph-name="afii10017" unicode="&#x410;" horiz-adv-x="1440" 
d="M969 610l-248 561l-248 -561h496zM1450 0h-213l-197 446h-641l-196 -446h-213l731 1589z" />
    <glyph glyph-name="afii10018" unicode="&#x411;" horiz-adv-x="1096" 
d="M821 457c0 91.333 -31 160.833 -93 208.5s-153 71.5 -273 71.5h-119v-561h137c118 0 205.5 23.167 262.5 69.5s85.5 116.833 85.5 211.5zM1014 457c0 -150.667 -46.167 -264.5 -138.5 -341.5s-229.166 -115.5 -410.499 -115.5h-322v1544h674v-176h-481v-455h129
c181.333 0 318.166 -38.5 410.499 -115.5s138.5 -190.5 138.5 -340.5z" />
    <glyph glyph-name="afii10019" unicode="&#x412;" horiz-adv-x="1096" 
d="M821 442c0 92 -31.167 162.167 -93.5 210.5s-153.166 72.5 -272.499 72.5h-119v-549h137c123.333 0 212.166 21.5 266.499 64.5s81.5 110.167 81.5 201.5zM711 1128c0 83.333 -21.5 144.167 -64.5 182.5s-109.833 57.5 -200.5 57.5h-110v-479h88
c94.667 0 166.167 20.167 214.5 60.5s72.5 99.833 72.5 178.5zM1014 440.001c0 -147.333 -45.501 -257.501 -136.501 -330.501s-228.5 -109.5 -412.5 -109.5h-322v1544h310c138 0 247.5 -36.167 328.5 -108.5s121.5 -169.166 121.5 -290.499
c0 -80.667 -20.5 -151.5 -61.5 -212.5s-93.5 -98.833 -157.5 -113.5c102.667 -12 183.334 -52.167 242.001 -120.5s88 -154.5 88 -258.5z" />
    <glyph glyph-name="afii10020" unicode="&#x413;" horiz-adv-x="788" 
d="M766 1368h-420v-1368h-192v1544h612v-176z" />
    <glyph glyph-name="afii10021" unicode="&#x414;" horiz-adv-x="1382" 
d="M1040 180v1184h-663v-922c0 -63.333 -5.66699 -118.833 -17 -166.5s-27 -79.5 -47 -95.5h727zM1372 -328h-191.999v328h-977v-328h-193v508c67.333 0 113.166 20.333 137.499 61s36.5 112.667 36.5 216v1087h1049v-1364h139v-508z" />
    <glyph glyph-name="afii10022" unicode="&#x415;" horiz-adv-x="1067" 
d="M954 0h-811v1544h811v-180h-618v-451h618v-180h-618v-553h618v-180z" />
    <glyph glyph-name="afii10024" unicode="&#x416;" horiz-adv-x="1958" 
d="M1966 0h-240l-651 801v-801h-192v801l-652 -801h-239l682 821l-656 723h228l637 -719v719h192v-719l637 719h227l-655 -723z" />
    <glyph glyph-name="afii10025" unicode="&#x417;" horiz-adv-x="1075" 
d="M993 428c0 -147.333 -46.668 -261.001 -140.001 -341.001s-223.333 -120 -390 -120c-58 0 -122 10 -192 30s-140 48.333 -210 85v205c96 -51.333 174.167 -87.5 234.5 -108.5s115.5 -31.5 165.5 -31.5c116.667 0 202.834 22 258.501 66s83.5 112.333 83.5 205
c0 98.667 -30.5 172.5 -91.5 221.5s-152.833 73.5 -275.5 73.5h-108v180h94c118.667 0 205 19.167 259 57.5s81 101.166 81 188.499c0 82.667 -23.333 146.334 -70 191.001s-114.334 67 -203.001 67c-55.333 0 -115.166 -11.833 -179.499 -35.5
s-137.5 -61.167 -219.5 -112.5v207c61.333 38 126.833 67.667 196.5 89s137.167 32 202.5 32c144 0 257.167 -38.833 339.5 -116.5s123.5 -182.167 123.5 -313.5c0 -75.333 -21.667 -144.666 -65 -207.999s-101.333 -108 -174 -134c88.667 -27.333 157.5 -74.5 206.5 -141.5
s73.5 -145.5 73.5 -235.5z" />
    <glyph glyph-name="afii10026" unicode="&#x418;" horiz-adv-x="1608" 
d="M1464 0h-192v1126l-1129 -1171v1589h193v-1124l1128 1169v-1589z" />
    <glyph glyph-name="afii10027" unicode="&#x419;" horiz-adv-x="1608" 
d="M1464 0h-192v1126l-1129 -1171v1589h193v-1124l1128 1169v-1589zM1118 1866c-18 -82.667 -53.502 -145.333 -106.502 -188s-121.833 -64 -206.5 -64c-85.333 0 -156.166 22.167 -212.499 66.5s-90.833 106.166 -103.5 185.499l119 41
c8.66699 -55.333 30.834 -100.666 66.501 -135.999s79.167 -53 130.5 -53s95 18.333 131 55s56.333 81 61 133z" />
    <glyph glyph-name="afii10028" unicode="&#x41a;" horiz-adv-x="1229" 
d="M1237 0h-240l-651 801v-801h-192v1544h192v-719l637 719h227l-655 -723z" />
    <glyph glyph-name="afii10029" unicode="&#x41b;" horiz-adv-x="1382" 
d="M1239 0h-191.999v1364h-670v-954c0 -156.667 -28.667 -269.667 -86 -339s-151 -104 -281 -104v180c67.333 0 113.166 20.333 137.499 61s36.5 112.667 36.5 216v1120h1055v-1544z" />
    <glyph glyph-name="afii10030" unicode="&#x41c;" horiz-adv-x="1743" 
d="M1702 0h-193l-147 1001l-492 -1046l-487 1046l-147 -1001h-195l260 1589l573 -1227l574 1227z" />
    <glyph glyph-name="afii10031" unicode="&#x41d;" horiz-adv-x="1382" 
d="M1239 0h-192v733h-711v-733h-193v1544h193v-631h711v631h192v-1544z" />
    <glyph glyph-name="afii10032" unicode="&#x41e;" horiz-adv-x="1696" 
d="M1442 772c0 174.667 -57.333 322.5 -172 443.5s-255.334 181.5 -422.001 181.5c-180 0 -323.333 -61.167 -430 -183.5s-160 -269.5 -160 -441.5c0 -174.667 56.667 -322.5 170 -443.5s253.333 -181.5 420 -181.5s307.334 60.667 422.001 182s172 269 172 443zM1634 772
c0 -225.333 -76.167 -415.833 -228.5 -571.5s-338.166 -233.5 -557.499 -233.5c-218 0 -403.667 78.167 -557 234.5s-230 346.5 -230 570.5c0 227.333 75.833 418.333 227.5 573s338.167 232 559.5 232s407.666 -77.333 558.999 -232s227 -345.667 227 -573z" />
    <glyph glyph-name="afii10033" unicode="&#x41f;" horiz-adv-x="1382" 
d="M1239 0h-192v1364h-711v-1364h-193v1544h1096v-1544z" />
    <glyph glyph-name="afii10034" unicode="&#x420;" horiz-adv-x="1014" 
d="M760 1106c0 90 -27.333 155.5 -82 196.5s-144 61.5 -268 61.5h-74v-514h74c128.667 0 219.167 19.667 271.5 59s78.5 105 78.5 197zM952 1106c0 -141.333 -47 -249.333 -141 -324s-229 -112 -405 -112h-70v-670h-193v1544h263c182 0 318.5 -36.5 409.5 -109.5
s136.5 -182.5 136.5 -328.5z" />
    <glyph glyph-name="afii10035" unicode="&#x421;" horiz-adv-x="1354" 
d="M1296 96c-58.667 -38 -129.001 -69 -211.001 -93s-159 -36 -231 -36c-232 0 -419.333 74.5 -562 223.5s-214 343.5 -214 583.5c0 232 72.667 423.833 218 575.5s332 227.5 560 227.5c89.333 0 169.833 -10.5 241.5 -31.5s137.834 -53.5 198.501 -97.5v-215
c-66.667 54.667 -134.5 95.667 -203.5 123s-140.167 41 -213.5 41c-179.333 0 -325.666 -58.333 -438.999 -175s-170 -266 -170 -448c0 -184 54.167 -334.5 162.5 -451.5s248.166 -175.5 419.499 -175.5c82.667 0 161 14 235 42s143.667 70 209 126v-219z" />
    <glyph glyph-name="afii10036" unicode="&#x422;" horiz-adv-x="934" 
d="M913 1372h-350v-1372h-192v1372h-351v172h893v-172z" />
    <glyph glyph-name="afii10037" unicode="&#x423;" horiz-adv-x="1155" 
d="M1165 1544l-725 -1544h-207l299 637l-542 907h217l418 -719l333 719h207z" />
    <glyph glyph-name="afii10038" unicode="&#x424;" horiz-adv-x="1503" 
d="M662 373v825c-120.667 0 -215.5 -36.5 -284.5 -109.5s-103.5 -173.833 -103.5 -302.5s34.667 -229.667 104 -303s164 -110 284 -110zM1241 786c0 128.667 -34.501 229.5 -103.501 302.5s-163.5 109.5 -283.5 109.5v-825c118.667 0 212.834 36.833 282.501 110.5
s104.5 174.5 104.5 302.5zM1434 786c0 -176 -51.5 -316.667 -154.5 -422s-244.833 -162.333 -425.5 -171v-193h-192v193c-181.333 8.66699 -323.333 65.667 -426 171s-154 246 -154 422c0 174.667 51.667 314.834 155 420.501s245 162.834 425 171.501v166h192v-166
c180 -8.66699 321.667 -65.834 425 -171.501s155 -245.834 155 -420.501z" />
    <glyph glyph-name="afii10039" unicode="&#x425;" horiz-adv-x="1176" 
d="M1169 0h-221l-362 641l-359 -641h-221l473 815l-446 729h221l338 -577l334 577h219l-447 -737z" />
    <glyph glyph-name="afii10040" unicode="&#x426;" horiz-adv-x="1382" 
d="M1337 -328h-192v328h-1002v1544h193v-1364h711v1364h192v-1364h98v-508z" />
    <glyph glyph-name="afii10041" unicode="&#x427;" horiz-adv-x="1329" 
d="M1186 0l-192.997 0.000976562v662c-44 -34.667 -96.333 -61.5 -157 -80.5s-124.334 -28.5 -191.001 -28.5c-180.667 0 -316.334 51.167 -407.001 153.5s-136 255.166 -136 458.499v379h193v-418c0 -132 29 -230.5 87 -295.5s145.667 -97.5 263 -97.5
c67.333 0 132.166 10.5 194.499 31.5s113.5 49.5 153.5 85.5v694h193v-1544z" />
    <glyph glyph-name="afii10042" unicode="&#x428;" horiz-adv-x="1876" 
d="M1733 0h-1590v1544h193v-1364h506v1364h192v-1364h506v1364h193v-1544z" />
    <glyph glyph-name="afii10043" unicode="&#x429;" horiz-adv-x="1876" 
d="M1831 -328h-193v328h-1495v1544h193v-1364h506v1364h192v-1364h506v1364h193v-1364h98v-508z" />
    <glyph glyph-name="afii10044" unicode="&#x42a;" horiz-adv-x="1321" 
d="M1047 457c0 91.333 -31.167 160.833 -93.5 208.5s-153.5 71.5 -273.5 71.5h-119v-561h137c118.667 0 206.5 23.167 263.5 69.5s85.5 116.833 85.5 211.5zM1239 457c0 -150.667 -46.167 -264.5 -138.5 -341.5s-229.166 -115.5 -410.499 -115.5h-321v1368h-359v176h551
v-631h129c181.333 0 318.166 -38.5 410.499 -115.5s138.5 -190.5 138.5 -340.5z" />
    <glyph glyph-name="afii10045" unicode="&#x42b;" horiz-adv-x="1575" 
d="M821 457c0 91.333 -31 160.833 -93 208.5s-153 71.5 -273 71.5h-119v-561h137c118 0 205.5 23.167 262.5 69.5s85.5 116.833 85.5 211.5zM1014 457c0 -150.667 -46.167 -264.5 -138.5 -341.5s-229.166 -115.5 -410.499 -115.5h-322v1544h193v-631h129
c181.333 0 318.166 -38.5 410.499 -115.5s138.5 -190.5 138.5 -340.5zM1432 0h-193v1544h193v-1544z" />
    <glyph glyph-name="afii10046" unicode="&#x42c;" horiz-adv-x="1096" 
d="M821 457c0 91.333 -31 160.833 -93 208.5s-153 71.5 -273 71.5h-119v-561h137c118 0 205.5 23.167 262.5 69.5s85.5 116.833 85.5 211.5zM1014 457c0 -150.667 -46.167 -264.5 -138.5 -341.5s-229.166 -115.5 -410.499 -115.5h-322v1544h193v-631h129
c181.333 0 318.166 -38.5 410.499 -115.5s138.5 -190.5 138.5 -340.5z" />
    <glyph glyph-name="afii10047" unicode="&#x42d;" horiz-adv-x="1354" 
d="M1276 774c0 -240 -71.333 -434.5 -214 -583.5s-330 -223.5 -562 -223.5c-72 0 -149 12 -231 36s-152.667 55 -212 93v219c66 -56 136 -98 210 -126s152.333 -42 235 -42c157.333 0 289 50.5 395 151.5s166.667 233.5 182 397.5h-780v181h778
c-22 156.667 -87.667 282.5 -197 377.5s-244.333 142.5 -405 142.5c-73.333 0 -144.666 -13.667 -213.999 -41s-137.333 -68.333 -204 -123v215c61.333 44 127.666 76.5 198.999 97.5s152 31.5 242 31.5c228 0 414.667 -75.833 560 -227.5s218 -343.5 218 -575.5z" />
    <glyph glyph-name="afii10048" unicode="&#x42e;" horiz-adv-x="2310" 
d="M2056 772c0 174.667 -57.3311 322.5 -171.998 443.5s-255.334 181.5 -422.001 181.5c-180 0 -323.333 -61.167 -430 -183.5s-160 -269.5 -160 -441.5c0 -174.667 56.833 -322.5 170.5 -443.5s253.5 -181.5 419.5 -181.5c167.333 0 308.166 60.667 422.499 182
s171.5 269 171.5 443zM2249 772c0 -225.333 -76.333 -415.833 -229 -571.5s-338.667 -233.5 -558 -233.5c-210.667 0 -391.834 73.667 -543.501 221s-232.5 329 -242.5 545h-340v-733h-193v1544h193v-631h352c32 194.667 120.333 354 265 478s314.334 186 509.001 186
c221.333 0 407.833 -77.333 559.5 -232s227.5 -345.667 227.5 -573z" />
    <glyph glyph-name="afii10049" unicode="&#x42f;" horiz-adv-x="1112" 
d="M776 883v481h-133c-117.333 0 -203.333 -19.833 -258 -59.5s-82 -102.5 -82 -188.5c0 -82 27 -141.333 81 -178s140.333 -55 259 -55h133zM969 0h-193v721h-55l-455 -721h-233l481 729c-124.667 3.33301 -223 40.333 -295 111s-108 166 -108 286
c0 134.667 43.5 238 130.5 310s213.5 108 379.5 108h348v-1544z" />
    <glyph glyph-name="afii10065" unicode="&#x430;" horiz-adv-x="1139" 
d="M821 489c0 102 -26.002 181.833 -78.002 239.5s-123 86.5 -213 86.5c-89.333 0 -160.666 -29.833 -213.999 -89.5s-80 -140.5 -80 -242.5c0 -102.667 26.333 -185 79 -247s122.334 -93 209.001 -93c88 0 159.5 32 214.5 96s82.5 147.333 82.5 250zM1006 0
l-184.998 0.000976562v150c-31.333 -60.667 -74 -106.334 -128 -137.001s-119 -46 -195 -46c-132.667 0 -240.334 48 -323.001 144s-124 220.667 -124 374c0 150.667 41.5 272.667 124.5 366s191.833 140 326.5 140c71.333 0 133.666 -14.167 186.999 -42.5
s97.333 -70.833 132 -127.5v137h185v-958z" />
    <glyph glyph-name="afii10066" unicode="&#x431;" horiz-adv-x="1106" 
d="M877 483c0 96.667 -30.833 176.167 -92.5 238.5s-138.834 93.5 -231.501 93.5c-94 0 -171.5 -31 -232.5 -93s-91.5 -141.667 -91.5 -239c0 -98.667 30.833 -180 92.5 -244s138.834 -96 231.501 -96c94 0 171.5 32 232.5 96s91.5 145.333 91.5 244zM1061 483
c0 -144 -49.1689 -266.001 -147.502 -366.001s-219.166 -150 -362.499 -150c-150 0 -271.833 51 -365.5 153s-140.5 236.667 -140.5 404c0 220 39.5 393.833 118.5 521.5s204.833 224.834 377.5 291.501c96.667 38 167.167 84.167 211.5 138.5s66.5 125.833 66.5 214.5h166
c0 -121.333 -32.5 -223.666 -97.5 -306.999s-167.5 -153 -307.5 -209c-81.333 -33.333 -146.833 -73 -196.5 -119s-87.5 -101.333 -113.5 -166c32.667 31.333 74.667 56.166 126 74.499s103 27.5 155 27.5c144.667 0 265.834 -48.833 363.501 -146.5
s146.5 -218.167 146.5 -361.5z" />
    <glyph glyph-name="afii10067" unicode="&#x432;" horiz-adv-x="856" 
d="M586 293c0 46.667 -15.167 79.832 -45.5 99.499s-80.833 29.5 -151.5 29.5h-72v-258h72c72 0 122.833 9.33301 152.5 28s44.5 52.334 44.5 101.001zM510 685.998c0 44 -10.667 73.167 -32 87.5s-59 21.5 -113 21.5h-48v-209h48c50 0 86.667 7.83301 110 23.5
s35 41.167 35 76.5zM770 292.998c0 -101.333 -29.832 -175.501 -89.499 -222.501s-156.834 -70.5 -291.501 -70.5h-256v958h234c107.333 0 188.666 -21.667 243.999 -65s83 -107 83 -191c0 -44 -9.66699 -82.5 -29 -115.5s-45.666 -56.5 -78.999 -70.5
c57.333 -15.333 102.333 -43.166 135 -83.499s49 -86.833 49 -139.5z" />
    <glyph glyph-name="afii10068" unicode="&#x433;" horiz-adv-x="666" 
d="M655 795h-338v-795h-184v958h522v-163z" />
    <glyph glyph-name="afii10069" unicode="&#x434;" horiz-adv-x="1057" 
d="M729 164v630.998h-381v-404c0 -51.333 -4 -97.666 -12 -138.999s-19 -70.666 -33 -87.999h426zM1047 -328.002h-185v328h-667v-328h-185v492c60.667 0 101.5 15.667 122.5 47s31.5 93.333 31.5 186v561h749v-794h134v-492z" />
    <glyph glyph-name="afii10070" unicode="&#x435;" horiz-adv-x="999" 
d="M776 571c-8 79.333 -35 139.833 -81 181.5s-108.333 62.5 -187 62.5c-75.333 0 -137.5 -21.5 -186.5 -64.5s-78.5 -102.833 -88.5 -179.5h543zM958 444l-729.001 0.000976562c7.33301 -98 35.166 -172.667 83.499 -224s115.5 -77 201.5 -77
c65.333 0 119.333 12.667 162 38s77.334 64.666 104.001 117.999l154 -82c-44 -84 -100.667 -146.667 -170 -188s-153.333 -62 -252 -62c-143.333 0 -257 47 -341 141s-126 219.667 -126 377c0 146 44.167 266.833 132.5 362.5s198.5 143.5 330.5 143.5
c134.667 0 243.334 -43.833 326.001 -131.5s124 -203.5 124 -347.5v-68z" />
    <glyph glyph-name="afii10072" unicode="&#x436;" horiz-adv-x="1421" 
d="M1419 0h-221l-395 506v-506h-185v506l-395 -506h-221l424 528l-391 430h217l366 -426v426h185v-426l366 426h217l-391 -430z" />
    <glyph glyph-name="afii10073" unicode="&#x437;" horiz-adv-x="778" 
d="M696 248c0 -85.333 -32.1699 -153.498 -96.5029 -204.498s-152.166 -76.5 -263.499 -76.5c-52 0 -97.833 5.16699 -137.5 15.5s-85.5 29.166 -137.5 56.499v176c39.333 -28 80 -49 122 -63s86 -21 132 -21c60 0 107.833 13.167 143.5 39.5s53.5 62.5 53.5 108.5
c0 52.667 -20.167 95.834 -60.5 129.501s-95.833 51.834 -166.5 54.501v88c80.667 4 138.667 17.667 174 41s53 58.666 53 105.999c0 41.333 -17 73.166 -51 95.499s-82 33.5 -144 33.5c-45.333 0 -89.666 -6.83301 -132.999 -20.5s-84.333 -34.167 -123 -61.5v179
c40 22 82.833 38.667 128.5 50s94.5 17 146.5 17c115.333 0 204.166 -22.833 266.499 -68.5s93.5 -110.167 93.5 -193.5c0 -62.667 -13.667 -111.834 -41 -147.501s-69.666 -60.834 -126.999 -75.501c54.667 -17.333 96.334 -48.166 125.001 -92.499s43 -99.5 43 -165.5z
" />
    <glyph glyph-name="afii10074" unicode="&#x438;" horiz-adv-x="1071" 
d="M944 0h-184v592l-627 -637v1003h184v-585l627 631v-1004z" />
    <glyph glyph-name="afii10075" unicode="&#x439;" horiz-adv-x="1071" 
d="M944 0h-184v592l-627 -637v1003h184v-585l627 631v-1004zM850 1300c-18 -82.667 -53.501 -145.167 -106.501 -187.5s-121.833 -63.5 -206.5 -63.5c-85.333 0 -156.166 22.167 -212.499 66.5s-90.833 105.833 -103.5 184.5l119 41c8 -55.333 30 -100.5 66 -135.5
s79.667 -52.5 131 -52.5c50.667 0 94.167 18.333 130.5 55s56.833 81 61.5 133z" />
    <glyph glyph-name="afii10076" unicode="&#x43a;" horiz-adv-x="946" 
d="M944 0h-221l-395 506v-506h-185v958h185v-426l366 426h217l-391 -430z" />
    <glyph glyph-name="afii10077" unicode="&#x43b;" horiz-adv-x="1040" 
d="M913 0h-184v795h-381v-437c0 -149.333 -22.167 -251.833 -66.5 -307.5s-134.833 -83.5 -271.5 -83.5v164c65.333 0 107.333 15 126 45s28 93 28 189v593h749v-958z" />
    <glyph glyph-name="afii10078" unicode="&#x43c;" horiz-adv-x="1159" 
d="M1110 0h-186l-78 471l-266 -516l-267 516l-77 -471h-187l180 1004l351 -687l350 687z" />
    <glyph glyph-name="afii10079" unicode="&#x43d;" horiz-adv-x="1071" 
d="M944 0h-184v434h-443v-434h-184v958h184v-360h443v360h184v-958z" />
    <glyph glyph-name="afii10080" unicode="&#x43e;" horiz-adv-x="1106" 
d="M877 483c0 96.667 -30.833 176.167 -92.5 238.5s-138.834 93.5 -231.501 93.5c-94 0 -171.5 -31 -232.5 -93s-91.5 -141.667 -91.5 -239c0 -98.667 30.833 -180 92.5 -244s138.834 -96 231.501 -96c94 0 171.5 32 232.5 96s91.5 145.333 91.5 244zM1061 483
c0 -144 -49.1689 -266.001 -147.502 -366.001s-219.166 -150 -362.499 -150c-142.667 0 -262.667 49.833 -360 149.5s-146 221.834 -146 366.501s48.333 265.5 145 362.5s217 145.5 361 145.5c144.667 0 265.834 -48.833 363.501 -146.5s146.5 -218.167 146.5 -361.5z" />
    <glyph glyph-name="afii10081" unicode="&#x43f;" horiz-adv-x="1071" 
d="M944 0h-184v795h-443v-795h-184v958h811v-958z" />
    <glyph glyph-name="afii10082" unicode="&#x440;" horiz-adv-x="1139" 
d="M903 483c0 102 -26.666 182.833 -79.999 242.5s-125 89.5 -215 89.5s-161 -28.833 -213 -86.5s-78 -137.5 -78 -239.5c0 -102.667 27.667 -186 83 -250s126.666 -96 213.999 -96c86.667 0 156.5 31 209.5 93s79.5 144.333 79.5 247zM1087 485
c0 -153.333 -41.1689 -278.001 -123.502 -374.001s-189.833 -144 -322.5 -144c-76 0 -141.167 15.333 -195.5 46s-97.166 76.334 -128.499 137.001v-682h-184v1490h184v-137c35.333 56.667 79.5 99.167 132.5 127.5s115.5 42.5 187.5 42.5
c134.667 0 243.334 -46.667 326.001 -140s124 -215.333 124 -366z" />
    </font>
</defs>
</svg>
